↑↓torrent.by
Поиск
Логин:  Регистрация
Пароль:

Игры джентльменов / The Ladykillers (2004) WEB-DLRip-AVC от DoMiNo | D

download Скачать торрент-файл   magnet Магнитная ссылка Размер: 1.45 GB Добавлен: 2024-07-01 05:00
Пиры будут получены из сети DHT
Последний сидер был замечен 2024-07-01 10:00
Информация о фильме Название: Игры джентльменов Оригинальное название: The Ladykillers Год выхода: 2004 Жанр: триллер, комедия, криминал Режиссер: Итан Коэн, Джоэл Коэн В ролях: Том Хэнкс, Ирма П. Холл, Марлон Уайанс, Дж.К. Симмонс, Ци Ма, Райан Херст, Дайан Делано, Джордж Уоллес, Джон МакКоннелл, Джейсон Уивер О фильме: Голдтуэйт Хиггинсон Дорр, странный профессор из южных штатов, разрабатывает план ограбления казино, базирующегося на речном корабле. Он собирает команду воров, снимает для них комнату в доме, владелицей которого является одна старая дама, миссис Мансон. Страна: США Студия: The Jacobson Company, Touchstone Pictures Продолжительность: 01:44:20 Перевод: Профессиональный (дублированный) Файл Формат: MKV Качество: WEB-DLRip-AVC Видео: 1012x544 at 23,976 fps, High@L4.1, ~1600 kbps Аудио: 48 kHz, AC3, 3/2 (L,C,R,l,r) + LFE ch, ~384 kbps Субтитры: None ***Рип от: -=DoMiNo=-
[+] M/IGeneral Complete name : Игры джентльменов.(2004).WEB-DLRip-AVC..mkv Format : Matroska Format version : Version 4 / Version 2 File size : 1.45 GiB Duration : 1 h 44 min Overall bit rate : 1 993 kb/s Movie name : Игры джентльменов Attachments : poster.jpg COMPOSER : Картер Бёруэлл COUNTRY : США DATE : 2004 DIRECTOR : Итан Коэн, Джоэл Коэн GENRE : триллер, комедия, криминал HD_VIDEO : 1 IMDB_RATING : 6.20 ITUNEXTC : mpaa|R|400| MEDIA_TYPE : 9 ORIGINAL_TITLE : The Ladykillers RATING : 6.982 WRITER : Джоэл Коэн, Итан Коэн, Уильям Роуз Video ID : 1 Format : AVC Format/Info : Advanced Video Codec Format profile : High@L4.1 Format settings, CABAC : Yes Format settings, ReFrames : 12 frames Codec ID : V_MPEG4/ISO/AVC Duration : 1 h 44 min Bit rate : 1 606 kb/s Width : 1 012 pixels Height : 544 pixels Display aspect ratio : 1.85:1 Frame rate mode : Constant Frame rate : 23.976 (24000/1001) FPS Color space : YUV Chroma subsampling : 4:2:0 Bit depth : 8 bits Scan type : Progressive Bits/(Pixel*Frame) : 0.122 Stream size : 1.14 GiB (79%) Title : Rip_by_-=DoMiNo=- Writing library : x264 core 148 r2721M 72d53ab Encoding settings : cabac=1 / ref=12 / deblock=1:-3:-3 / analyse=0x3:0x133 / me=umh / subme=11 / psy=1 / psy_rd=1.00:0.10 / mixed_ref=1 / me_range=32 / chroma_me=1 / trellis=2 / 8x8dct=1 / cqm=0 / deadzone=21,11 / fast_pskip=0 / chroma_qp_offset=-3 / threads=5 / lookahead_threads=1 / sliced_threads=0 / nr=0 / decimate=1 / interlaced=0 / bluray_compat=0 / constrained_intra=0 / bframes=11 / b_pyramid=2 / b_adapt=2 / b_bias=0 / direct=3 / weightb=1 / open_gop=0 / weightp=2 / keyint=230 / keyint_min=23 / scenecut=40 / intra_refresh=0 / rc_lookahead=60 / rc=2pass / mbtree=1 / bitrate=1606 / ratetol=1.0 / qcomp=0.70 / qpmin=0 / qpmax=69 / qpstep=4 / cplxblur=20.0 / qblur=0.5 / ip_ratio=1.40 / aq=1:1.00 Language : English Default : Yes Forced : No Color range : Limited Color primaries : BT.709 Transfer characteristics : BT.709 Matrix coefficients : BT.709 DURATION : 01:44:20.254000000 Audio ID : 2 Format : AC-3 Format/Info : Audio Coding 3 Mode extension : CM (complete main) Format settings, Endianness : Big Codec ID : A_AC3 Duration : 1 h 44 min Bit rate mode : Constant Bit rate : 384 kb/s Channel(s) : 6 channels Channel positions : Front: L C R, Side: L R, LFE Sampling rate : 48.0 kHz Frame rate : 31.250 FPS (1536 spf) Bit depth : 16 bits Compression mode : Lossy Stream size : 287 MiB (19%) Title : Dub Language : Russian Default : Yes Forced : No DURATION : 01:44:20.320000000 Menu 00:00:00.000 : :Opening Credits 00:12:04.000 : :Members of the Ensemble 00:19:21.000 : :Shine on Me 00:28:26.000 : :Practicing Music 00:34:06.000 : :The Bandit Queen 00:42:49.000 : :A New Friend 00:49:38.000 : :Bad Timing 00:56:03.000 : :Trouble 01:05:26.000 : :Entertaining the Ladies 01:15:18.000 : :"A Middle Way" 01:23:38.000 : :Dazzling Conversation 01:38:23.000 : :End Credits
[+] Скриншоты

Всего файлов в раздаче: 1 
Игры джентльменов.(2004).WEB-DLRip-AVC.[-=DoMiNo=-].mkv1.45 GB

Похожие раздачи по запросу - Игры
2024-07-08 magnet XXXIII Олимпийские игры 2024. Баскетбол. Квалификация. Греция. Мужчины. 1/2 финала. Греция - Словения [06.07] (2024) IPTV 720p | 50fps 3.12 GB ↑ 0 ↓ 0
2024-02-12 magnet Голодные игры: Баллада о змеях и певчих птицах / The Hunger Games: The Ballad of Songbirds & Snakes (2023) BDRip 1080p | D, P, A 11.46 GB ↑ 0 ↓ 0
2024-02-12 magnet Голодные игры: Баллада о змеях и певчих птицах / The Hunger Games: The Ballad of Songbirds & Snakes (2023) BDRip-AVC от ExKinoRay | D 2.89 GB ↑ 0 ↓ 0
2024-02-07 magnet Голодные игры: Баллада о змеях и певчих птицах / The Hunger Games: The Ballad of Songbirds & Snakes (2023) UHD BDRemux 2160p от селезень | 4K | HDR | Dolby Vision Profile 8 | D 63.54 GB ↑ 0 ↓ 1
2023-12-26 magnet Голодные игры: Баллада о змеях и певчих птицах / The Hunger Games: The Ballad of Songbirds & Snakes (2023) WEB-DL 720p от ExKinoRay | D 4.36 GB ↑ 0 ↓ 0
2023-12-11 magnet Голодные игры: Баллада о змеях и певчих птицах / The Hunger Games: The Ballad of Songbirds & Snakes [2023, фантастика, боевик, триллер, WEBRip-AVC] Dub (Мосфильм-Мастер) 2.18 GB ↑ 0 ↓ 0
2022-11-24 magnet Яков Перельман - Лучшие математические игры, головоломки и фокусы (2022) EPUB 10.20 MB ↑ 0 ↓ 0

Комментарии


Зарегистрируйтесь чтобы добавить комментарий
Торрент клиент
byTorrent - программа для загрузки торрент-файлов.

Скачать byTorrent.exe (1,5 МБ)

Скачать byTorrent.zip (0,6 МБ)

Поддержи torrent.by
российских рублей
(300 российских рублей это 4$)

Обратная связь rss

End game ©