↑↓torrent.by
Поиск
Логин:  Регистрация
Пароль:

Кунг-фу Панда 4 / Kung Fu Panda 4 (2024) BDRip 1080p | D | UKR

download Скачать торрент-файл   magnet Магнитная ссылка Размер: 11.26 GB Добавлен: 2024-07-01 05:00
Пиры будут получены из сети DHT
Последний сидер был замечен 2024-07-13 13:30
Информация о фильме Название: Кунг-фу Панда 4 Оригинальное название: Kung Fu Panda 4 Год выхода: 2024 Жанр: мультфильм, фэнтези, боевик, комедия, приключения, семейный Режиссер: Майк Митчелл, Стефани Стайн В ролях: Джек Блэк, Аквафина, Виола Дэвис, Дастин Хоффман, Брайан Крэнстон, Джеймс Хун, Иэн Макшейн, Ке Хюи Куан, Ронни Чиэн, Лори Тань Чинн О фильме: Продолжение приключений легендарного воина По, его верных друзей и наставника. Страна: США, Китай Продолжительность: 01:33:39 Перевод: Дублированный | Le Doyen (Украинский) Файл Кодек: x.264 Качество: BDRip 1080p Видео: AVC, 1920x804 (2.40:1), 23.976 fps, 14,1 Mb/s Аудио 1: E-AC3, 48.0 kHz, 6 ch, 576 kb/s | UKR Аудио 2: AC3, 48.0 kHz, 6 ch, 576 kb/s | UKR Аудио 3: E-AC3, 48.0 kHz, 8 ch, 1536 kb/s | ENG Аудио 4: AC3, 48.0 kHz, 6 ch, 448 kb/s | ENG Субтитры: украинские (full), английские (full, SDH)
[+] MIGeneral Unique ID : 176378640666298199185509197365739353423 (0x84B14A6233E2E6D73733E1676919754F) Complete name : Kung Fu Panda 4 (2024) BDRip 1080p Ukr Eng .mkv Format : Matroska Format version : Version 4 File size : 11.3 GiB Duration : 1 h 33 min Overall bit rate : 17.2 Mb/s Movie name : Kung Fu Panda 4 (2024) Encoded date : UTC 2024-06-29 08:59:07 Writing application : mkvmerge v85.0 ('Shame For You') 64-bit Writing library : libebml v1.4.5 + libmatroska v1.7.1 Cover : Yes Attachments : Cover.jpg Video ID : 1 Format : AVC Format/Info : Advanced Video Codec Format profile : Main@L4.1 Format settings : CABAC / 5 Ref Frames Format settings, CABAC : Yes Format settings, Reference frames : 5 frames Codec ID : V_MPEG4/ISO/AVC Duration : 1 h 33 min Bit rate : 14.1 Mb/s Width : 1 920 pixels Height : 804 pixels Display aspect ratio : 2.40:1 Frame rate mode : Constant Frame rate : 23.976 (24000/1001) FPS Color space : YUV Chroma subsampling : 4:2:0 Bit depth : 8 bits Scan type : Progressive Bits/(Pixel*Frame) : 0.380 Stream size : 9.20 GiB (82%) Writing library : x264 core 164 r3106 eaa68fa Encoding settings : cabac=1 / ref=5 / deblock=1:-3:-3 / analyse=0x1:0x131 / me=umh / subme=10 / psy=1 / psy_rd=1.00:0.00 / mixed_ref=1 / me_range=32 / chroma_me=1 / trellis=2 / 8x8dct=0 / cqm=0 / deadzone=21,11 / fast_pskip=0 / chroma_qp_offset=-2 / threads=24 / lookahead_threads=4 / sliced_threads=0 / nr=0 / decimate=0 / interlaced=0 / bluray_compat=0 / constrained_intra=0 / bframes=8 / b_pyramid=2 / b_adapt=2 / b_bias=0 / direct=3 / weightb=1 / open_gop=0 / weightp=2 / keyint=250 / keyint_min=23 / scenecut=40 / intra_refresh=0 / rc=crf / mbtree=0 / crf=15.0 / qcomp=0.60 / qpmin=0 / qpmax=69 / qpstep=4 / ip_ratio=1.30 / pb_ratio=1.20 / aq=3:0.90 Default : Yes Forced : No Audio #1 ID : 2 Format : E-AC-3 Format/Info : Enhanced AC-3 Commercial name : Dolby Digital Plus Codec ID : A_EAC3 Duration : 1 h 33 min Bit rate mode : Constant Bit rate : 576 kb/s Channel(s) : 6 channels Channel layout : L R C LFE Ls Rs Sampling rate : 48.0 kHz Frame rate : 31.250 FPS (1536 SPF) Compression mode : Lossy Stream size : 386 MiB (3%) Title : DUB (Le Doyen) Language : Ukrainian Service kind : Complete Main Default : Yes Forced : No Audio #2 ID : 3 Format : AC-3 Format/Info : Audio Coding 3 Commercial name : Dolby Digital Codec ID : A_AC3 Duration : 1 h 33 min Bit rate mode : Constant Bit rate : 576 kb/s Channel(s) : 6 channels Channel layout : L R C LFE Ls Rs Sampling rate : 48.0 kHz Frame rate : 31.250 FPS (1536 SPF) Compression mode : Lossy Stream size : 386 MiB (3%) Title : DUB (Le Doyen) Language : Ukrainian Service kind : Complete Main Default : No Forced : No Audio #3 ID : 4 Format : E-AC-3 Format/Info : Enhanced AC-3 Commercial name : Dolby Digital Plus Format profile : Blu-ray Disc Format settings : Dolby Surround EX Codec ID : A_EAC3 Duration : 1 h 33 min Bit rate mode : Constant Bit rate : 1 536 kb/s Channel(s) : 8 channels Channel layout : L R C LFE Ls Rs Lb Rb Sampling rate : 48.0 kHz Frame rate : 31.250 FPS (1536 SPF) Compression mode : Lossy Stream size : 1.00 GiB (9%) Title : Original Language : English Service kind : Complete Main Default : No Forced : No Audio #4 ID : 5 Format : AC-3 Format/Info : Audio Coding 3 Commercial name : Dolby Digital Codec ID : A_AC3 Duration : 1 h 33 min Bit rate mode : Constant Bit rate : 448 kb/s Channel(s) : 6 channels Channel layout : L R C LFE Ls Rs Sampling rate : 48.0 kHz Frame rate : 31.250 FPS (1536 SPF) Compression mode : Lossy Stream size : 300 MiB (3%) Title : Original Language : English Service kind : Complete Main Default : No Forced : No Text #1 ID : 6 Format : UTF-8 Codec ID : S_TEXT/UTF8 Codec ID/Info : UTF-8 Plain Text Duration : 1 h 32 min Bit rate : 93 b/s Count of elements : 1265 Stream size : 62.9 KiB (0%) Title : Full Language : Ukrainian Default : No Forced : No Text #2 ID : 7 Format : UTF-8 Codec ID : S_TEXT/UTF8 Codec ID/Info : UTF-8 Plain Text Duration : 1 h 26 min Bit rate : 68 b/s Count of elements : 1362 Stream size : 43.1 KiB (0%) Title : English Language : English Default : No Forced : No Text #3 ID : 8 Format : UTF-8 Codec ID : S_TEXT/UTF8 Codec ID/Info : UTF-8 Plain Text Duration : 1 h 26 min Bit rate : 78 b/s Count of elements : 1699 Stream size : 49.9 KiB (0%) Title : SDH Language : English Default : No Forced : No Menu 00:00:00.000 : :Chapter 01 00:04:18.800 : :Chapter 02 00:09:04.043 : :Chapter 03 00:12:24.911 : :Chapter 04 00:16:55.139 : :Chapter 05 00:20:54.879 : :Chapter 06 00:25:59.558 : :Chapter 07 00:31:00.400 : :Chapter 08 00:35:24.789 : :Chapter 09 00:40:16.706 : :Chapter 10 00:44:23.661 : :Chapter 11 00:50:42.873 : :Chapter 12 00:55:15.938 : :Chapter 13 01:00:46.142 : :Chapter 14 01:04:06.593 : :Chapter 15 01:08:40.825 : :Chapter 16 01:12:17.416 : :Chapter 17 01:17:06.705 : :Chapter 18 01:22:26.233 : :Chapter 19 01:24:48.166 : :Chapter 20 01:33:38.363 : :Chapter 21
[+] Скриншоты

Всего файлов в раздаче: 1 
Kung Fu Panda 4 (2024) BDRip 1080p Ukr Eng [Hurtom].mkv11.26 GB

Похожие раздачи по запросу - Кунг-фу
2024-07-21 magnet Кунг-фу Панда 4 / Kung Fu Panda 4 (2024) BDRip 1080p от MegaPeer | D, P 7.03 GB ↑ 0 ↓ 5
2024-07-21 magnet Кунг-фу Панда 4 / Kung Fu Panda 4 (2024) BDRip от MegaPeer | D | Movie Dubbing 1.42 GB ↑ 1 ↓ 0
2024-07-21 magnet Кунг-фу Панда 4 / Kung Fu Panda 4 (2024) BDRemux 1080p | D, P 27.48 GB ↑ 0 ↓ 0
2024-07-20 magnet Кунг-фу Панда 4 / Kung Fu Panda 4 (2024) BDRip 1080p от Generalfilm | D 5.19 GB ↑ 0 ↓ 0
2024-07-20 magnet Кунг-фу Панда 4 / Kung Fu Panda 4 (2024) BDRip 1080p от DoMiNo & селезень | D | Movie Dubbing, Red Head Sound 7.50 GB ↑ 0 ↓ 3
2024-07-20 magnet Кунг-фу Панда 4 / Kung Fu Panda 4 (2024) BDRip 720p от DoMiNo & селезень | D | Movie Dubbing, Red Head Sound 3.39 GB ↑ 0 ↓ 1
2024-07-11 magnet Кунг-фу Панда 4 / Kung Fu Panda 4 (2024) BDRemux 1080p | D, P 27.35 GB ↑ 0 ↓ 0

Комментарии


Зарегистрируйтесь чтобы добавить комментарий
Торрент клиент
byTorrent - программа для загрузки торрент-файлов.

Скачать byTorrent.exe (1,5 МБ)

Скачать byTorrent.zip (0,6 МБ)

Поддержи torrent.by
российских рублей
(300 российских рублей это 4$)

Обратная связь rss

End game ©