↑↓torrent.by
Поиск
Логин:  Регистрация
Пароль:

Смотрители / The Watchers (2024) WEB-DL 1080p | D | TS

download Скачать торрент-файл   magnet Магнитная ссылка Размер: 5.49 GB Добавлен: 2024-07-01 05:00
Пиры будут получены из сети DHT
Последний сидер был замечен вчера в 14:39
Информация о фильме Название: Смотрители Оригинальное название: The Watchers Год выхода: 2024 Жанр: ужасы Режиссер: Ишана Шьямалан В ролях: Дакота Фаннинг, Джорджина Кэмпбелл, Олуэн Фуэре, Оливер Финнегэн, Алистэр Браммер, Джон Линч ,Шиван Хьюлетт, Ханна Дарган, Эмили Дарган, Джоэль Фигероа О фильме: Женщина заблудилась в лесу в западной Ирландии. Она находит убежище, в котором живут еще трое незнакомцев, но каждую ночь за ними наблюдают загадочные существа. Страна: Ирландия, США Продолжительность: 01:41:42 Перевод: профессиональный (дублированный) звук TS Файл Качество: WEB-DL 1080p Видео: MPEG-4 AVC Video / 6580 kbps / 1918x1036 / 23.976 fps / 16:9 / High Profile 4 Аудио 1: русский / AC-3 / 2.0 / 48 kHz / 192 kbps Аудио 2: український / AC-3 / 2.0 / 48 kHz / 192 kbps Аудио 3: english / E-AC-3+Atmos / 5.1 / 48 kHz / 768 kbps Субтитры: english
[+] Скриншоты
[+] MediaInfoGeneral Unique ID : 267477456017672267924052722297360559468 (0xC93A48C148F7AA3C0D46C0DBD3BB2D6C) Complete name : the.watchers.2024.1080p.web.h264-RGB.mkv Format : Matroska Format version : Version 4 / Version 2 File size : 5.49 GiB Duration : 1 h 41 min Overall bit rate : 7 734 kb/s Movie name : RGB Encoded date : UTC 2024-06-28 21:15:59 Writing application : mkvmerge v82.0 ('I'm The President') 64-bit Writing library : libebml v1.4.5 + libmatroska v1.7.1 Video ID : 1 Format : AVC Format/Info : Advanced Video Codec Format profile : High@L4 Format settings, CABAC : Yes Format settings, RefFrames : 4 frames Codec ID : V_MPEG4/ISO/AVC Duration : 1 h 41 min Bit rate : 6 580 kb/s Width : 1 918 pixels Height : 1 036 pixels Display aspect ratio : 1.85:1 Frame rate mode : Constant Frame rate : 23.976 (24000/1001) FPS Original frame rate : 47.952 (48000/1001) FPS Color space : YUV Chroma subsampling : 4:2:0 Bit depth : 8 bits Scan type : Progressive Bits/(Pixel*Frame) : 0.138 Stream size : 4.67 GiB (85%) Title : voraciousfreshbustardofeconomy Language : English Default : Yes Forced : No Color range : Limited Color primaries : BT.709 Transfer characteristics : BT.709 Matrix coefficients : BT.709 Audio #1 ID : 2 Format : AC-3 Format/Info : Audio Coding 3 Format settings, Endianness : Big Codec ID : A_AC3 Duration : 1 h 41 min Bit rate mode : Constant Bit rate : 192 kb/s Channel(s) : 2 channels Channel positions : Front: L R Sampling rate : 48.0 kHz Frame rate : 31.250 FPS (1536 SPF) Bit depth : 16 bits Compression mode : Lossy Stream size : 140 MiB (2%) Title : DUB TS Language : Russian Service kind : Complete Main Default : Yes Forced : No Audio #2 ID : 3 Format : AC-3 Format/Info : Audio Coding 3 Format settings, Endianness : Big Codec ID : A_AC3 Duration : 1 h 41 min Bit rate mode : Constant Bit rate : 192 kb/s Channel(s) : 2 channels Channel positions : Front: L R Sampling rate : 48.0 kHz Frame rate : 31.250 FPS (1536 SPF) Bit depth : 16 bits Compression mode : Lossy Stream size : 140 MiB (2%) Title : DUB TS Language : Ukrainian Service kind : Complete Main Default : No Forced : No Audio #3 ID : 4 Format : E-AC-3 Format/Info : Enhanced Audio Coding 3 Format profile : E-AC-3+Atmos / E-AC-3 Format settings, Endianness : Big Codec ID : A_EAC3 Duration : 1 h 41 min Bit rate mode : Constant Bit rate : 768 kb/s Channel(s) : 15 objects / 6 channels Channel positions : 15 objects / Front: L C R, Side: L R, LFE Sampling rate : 48.0 kHz Frame rate : 187.500 FPS (256 SPF) Compression mode : Lossy Stream size : 559 MiB (10%) Title : Original Language : English Service kind : Complete Main Default : No Forced : No Text ID : 5 Format : UTF-8 Codec ID : S_TEXT/UTF8 Codec ID/Info : UTF-8 Plain Text Duration : 1 h 34 min Bit rate : 56 b/s Count of elements : 1392 Stream size : 39.3 KiB (0%) Language : English Default : No Forced : No

Всего файлов в раздаче: 1 
the.watchers.2024.1080p.web.h264-RGB.mkv5.49 GB

Похожие раздачи по запросу - Смотрители
2024-07-17 magnet Смотрители / The Watchers (2024) UHD WEB-DL-HEVC 2160p | 4K | HDR | D, P | Movie Dubbing, Red Head Sound, HDRezka Studio 18.48 GB ↑ 0 ↓ 3
2024-07-14 magnet Смотрители / The Watchers (2024) WEB-DL 720p от селезень | D, P | Movie Dubbing, HDrezka, Red Head Sound 2.66 GB ↑ 0 ↓ 2
2024-07-14 magnet Смотрители / The Watchers (2024) WEB-DLRip 1080p | D, P | Movie Dubbing, HDrezka, RHS 7.68 GB ↑ 0 ↓ 1
2024-07-04 magnet Смотрители / The Watchers (2024) WEB-DL 1080p | P | Red Head Sound 4.81 GB ↑ 0 ↓ 0
2024-07-03 magnet Смотрители / The Watchers (2024) WEB-DLRip-AVC | P | HDRezka Studio 1.50 GB ↑ 15 ↓ 0
2024-07-01 magnet Смотрители / The Watchers (2024) WEB-DL 720p от селезень | P | HDRezka Studio 2.11 GB ↑ 0 ↓ 0
2024-07-01 magnet Смотрители / The Watchers (2024) WEB-DLRip от DoMiNo & селезень | P | HDRezka Studio 1.37 GB ↑ 0 ↓ 0

Комментарии


Зарегистрируйтесь чтобы добавить комментарий
Торрент клиент
byTorrent - программа для загрузки торрент-файлов.

Скачать byTorrent.exe (1,5 МБ)

Скачать byTorrent.zip (0,6 МБ)

Поддержи torrent.by
российских рублей
(300 российских рублей это 4$)

Обратная связь rss

End game ©