↑↓torrent.by
Поиск
Логин:  Регистрация
Пароль:

Я тебя люблю / I Love You (1986) DVDRip-AVC | A

download Скачать торрент-файл   magnet Магнитная ссылка Размер: 1.21 GB Раздают: 1 Качают: 0 Добавлен: 2024-07-01 11:00
Пиры будут получены из сети DHT
Последний сидер был замечен сегодня в 15:17
Я люблю тебя Информация о фильме Год релиза: 1986 Выпущено: Франция, Италия Жанр: драма Режиссер: Марко Феррери В ролях: Кристоф Ламбер, Эдди Митчелл, Флора Барилларо, Аньес Сораль, Анемон, Марк Берман, Патрис Бертран, Пола Деэлли, Маурицио Донадони О фильме: Молодой человек по имени Мишель, уже заметно пресыщенный вниманием со стороны женщин, находит на улице брелок для ключей. Да не просто брелок, а симпатичное кукольное личико, которое на каждый свист своего хозяина незамедлительно отвечает: «I Love You». Довольно скоро эта забава перерастает для Мишеля в непреодолимое влечение к игрушке: фетиш пробуждает в нем основной инстинкт. Брелок оказывается удобнее и безотказнее самой лучшей любовницы: он готов признаваться в любви в любое время дня и ночи, вне зависимости от настроения, и главное, ничего не требуя взамен, что Мишелю не раз приходилось слышать от бывших подружек. Но однажды Мишель ломает зуб, лишившись тем самым способности свистеть и слышать в ответ безотказное: «I Love You»... Марко Феррери, мастер концептуального кино и большой специалист грузить свои фильмы подтекстами, и на этот раз предлагает неизбитую и красивую идею об аномальном проявлении потребительских настроений, некоммуникабельности и отчуждении полов. Продолжительность: 01:27:39 Перевод A: Авторский (одноголосый закадровый) Сергей Козлов Субтитры: нет Качество видео: DVDRip-AVC Формат видео: MKV Видео: MPEG4 Video (H264) 704x432 25fps Bit rate 1 446 kb/s Аудио: Dolby AC3 48000Hz 2 ch (mono) 192kbps Оригинальная аудиодорожка: Dolby AC3 48000Hz 2 ch 192kbps Реклама: Отсутствует
[+] MediaInfo Я тебя люблю (I Love You) .mkv Format : Matroska Format version : Version 4 File size : 1.21 GiB Duration : 1 h 34 min Overall bit rate : 1 832 kb/s Frame rate : 25.000 FPS Encoded date : 2024-06-02 04:49:52 UTC Writing application : mkvmerge v71.0.0 ('Altitude') 64-bit Writing library : libebml v1.4.4 + libmatroska v1.7.1 Video ID : 1 Format : AVC Format/Info : Advanced Video Codec Format profile : High@L4.1 Format settings : CABAC / 16 Ref Frames Format settings, CABAC : Yes Format settings, Reference : 16 frames Codec ID : V_MPEG4/ISO/AVC Duration : 1 h 34 min Bit rate : 1 446 kb/s Width : 704 pixels Height : 432 pixels Display aspect ratio : 16:10 Frame rate mode : Constant Frame rate : 25.000 FPS Color space : YUV Chroma subsampling : 4:2:0 Bit depth : 8 bits Scan type : Progressive Bits/(Pixel*Frame) : 0.190 Stream size : 982 MiB (79%) Writing library : x264 core 164 r3164 c196240 Encoding settings : cabac=1 / ref=16 / deblock=1:-3:-3 / analyse=0x3:0x133 / me=umh / subme=9 / psy=1 / psy_rd=1.00:0.00 / mixed_ref=1 / me_range=32 / chroma_me=1 / trellis=2 / 8x8dct=1 / cqm=0 / deadzone=21,11 / fast_pskip=1 / chroma_qp_offset=-2 / threads=13 / lookahead_threads=3 / sliced_threads=0 / nr=0 / decimate=1 / interlaced=0 / bluray_compat=0 / constrained_intra=0 / bframes=10 / b_pyramid=0 / b_adapt=2 / b_bias=0 / direct=3 / weightb=1 / open_gop=0 / weightp=2 / keyint=250 / keyint_min=25 / scenecut=40 / intra_refresh=0 / rc=crf / mbtree=0 / crf=20.0 / qcomp=0.60 / qpmin=0 / qpmax=69 / qpstep=4 / ip_ratio=1.40 / pb_ratio=1.30 / aq=1:1.00 Default : Yes Forced : No Audio #1 ID : 2 Format : AC-3 Format/Info : Audio Coding 3 Commercial name : Dolby Digital Codec ID : A_AC3 Duration : 1 h 34 min Bit rate mode : Constant Bit rate : 192 kb/s Channel(s) : 2 channels Channel layout : L R Sampling rate : 48.0 kHz Frame rate : 31.250 FPS (1536 SPF) Compression mode : Lossy Stream size : 130 MiB (10%) Language : Russian Service kind : Complete Main Default : Yes Forced : No Audio #2 ID : 3 Format : AC-3 Format/Info : Audio Coding 3 Commercial name : Dolby Digital Codec ID : A_AC3 Duration : 1 h 34 min Bit rate mode : Constant Bit rate : 192 kb/s Channel(s) : 2 channels Channel layout : L R Sampling rate : 48.0 kHz Frame rate : 31.250 FPS (1536 SPF) Compression mode : Lossy Stream size : 130 MiB (10%) Language : English Service kind : Complete Main Default : No Forced : No
[+] Скриншоты

Всего файлов в раздаче: 1 
Я тебя люблю (I Love You) [by ale_x2008].mkv1.21 GB

Похожие раздачи по запросу - тебя
Сегодня magnet Я хочу держать тебя за руку / I Wanna Hold Your Hand (1978) DVDRip | P, A 1.33 GB ↑ 0 ↓ 0
2024-07-09 magnet Аркадиас - Ищу тебя (2024) МР3 159.87 MB ↑ 0 ↓ 0
2024-07-06 magnet За год до смерти я встретил тебя / Drawing Closer (2024) WEB-DLRip-AVC | L | Синема УС 2.04 GB ↑ 0 ↓ 0
2024-07-04 magnet М.Ильин, Е.Сегал - Рассказы о том, что тебя окружает. Азбука природы (1959) PDF 113.46 MB ↑ 0 ↓ 0
2024-06-29 magnet Кто угодно, кроме тебя / Anyone But You (2023) BDRip-HEVC 1080p от HEVC-CLUB | P 4.39 GB ↑ 0 ↓ 4
2024-06-25 magnet Часть тебя / En del av dig / A Part of You (2024) WEB-DLRip от New-Team | P | Red Head Sound 1.46 GB ↑ 0 ↓ 0
2024-06-25 magnet Часть тебя / En del av dig / A Part of You (2024) WEB-DL 1080p от ExKinoRay | P | Red Head Sound 4.49 GB ↑ 0 ↓ 0

Комментарии


Зарегистрируйтесь чтобы добавить комментарий
Торрент клиент
byTorrent - программа для загрузки торрент-файлов.

Скачать byTorrent.exe (1,5 МБ)

Скачать byTorrent.zip (0,6 МБ)

Поддержи torrent.by
российских рублей
(300 российских рублей это 4$)

Обратная связь rss

End game ©