↑↓torrent.by
Поиск
Логин:  Регистрация
Пароль:

Шестой (1981) DVDRip-AVC от New-Team

download Скачать торрент-файл   magnet Магнитная ссылка Размер: 1.46 GB Добавлен: 2024-07-01 11:00
Пиры будут получены из сети DHT
Последний сидер был замечен 2024-07-06 21:32
Страна: СССР Производство: Студия Горького Жанр: боевик Год выпуска: 1981 Продолжительность: 01:19:29 Перевод: не требуется Оригинальная аудиодорожка: русский Cубтитры: русский, английский Режиссер: Самвел Гаспаров В ролях: Сергей Никоненко, Михаил Козаков, Владимир Грамматиков, Михаил Пуговкин, Евгений Бакалов, Тимофей Спивак, Сергей Ульянов, Михарбек Кокоев, Лариса Белогурова, Нина Меньшикова, Марина Яковлева, Борис Гитин, Георгий Милляр, Александр Галибин, Виктор Андриенко... Подробнее об актерах Описание: Отгремела гражданская война. В маленьком южном городке появился шестой по счету начальник милиции. Пятеро предшественников Глодова вместе с другими активистами были зверски убиты бандой неуловимого Вахрамеева. И теперь Глодову с несколькими верными помощниками предстояла смертельная схватка с сильным врагом… Исходник: DVD9 R5 Тип релиза: DVDRip-AVC Контейнер: MKV Видео: 696->996x428 (2.35:1), 25 кадра/сек, x264 core 138 r2356 ~ 1275 кбит/сек, 0.171 бит/пиксель Аудио: 48 кГц, Dolby Digital AC3 5.1, 448 кбит/сек Русский Аудио: 48 кГц, Dolby Digital AC3 5.1, 448 кбит/сек Английский Аудио: 48 кГц, Dolby Digital AC3 5.1, 448 кбит/сек Французский Оригинальная навигация по главам: есть Субтитры: SoftSub (srt) Раздача от:
[+] MediaInfo Общее Полное имя : Шестой.1981.DVDRip-AVC__by_AVP_Studio.mkv Формат : Matroska Версия формата : Version 4 / Version 2 Размер файла : 1,46 Гбайт Продолжительность : 1 ч. 19 м. Общий поток : 2622 Кбит/сек Название фильма : Shestoy.1981.DVDRip-AVC__by_AVP_Studio Дата кодирования : UTC 2014-07-20 12:07:12 Программа кодирования : mkvmerge v6.9.1 ('Blue Panther') 64bit built on Apr 18 2014 18:23:38 Библиотека кодирования : libebml v1.3.0 + libmatroska v1.4.1 Видео Идентификатор : 1 Формат : AVC Формат/Информация : Advanced Video Codec Профиль формата : High@L4.1 Параметр CABAC формата : Да Параметр ReFrames формата : 8 кадров Идентификатор кодека : V_MPEG4/ISO/AVC Продолжительность : 1 ч. 19 м. Битрейт : 1275 Кбит/сек Ширина : 696 пикселей Высота : 428 пикселей Соотношение сторон : 2,35:1 Соотношение сторон в оригинале : 2,35:1 Режим частоты кадров : Постоянный Частота кадров : 25,000 кадров/сек Цветовое пространство : YUV Субдискретизация насыщенности : 4:2:0 Битовая глубина : 8 бит Тип развёртки : Прогрессивная Бит/(Пиксели*Кадры) : 0.171 Размер потока : 697 Мбайт (47%) Заголовок : Источник DVD Библиотека кодирования : x264 core 138 r2356 a1d3d17 Настройки программы : cabac=1 / ref=8 / deblock=1:-2:-1 / analyse=0x3:0x113 / me=umh / subme=10 / psy=1 / psy_rd=1.00:0.05 / mixed_ref=1 / me_range=32 / chroma_me=1 / trellis=2 / 8x8dct=1 / cqm=0 / deadzone=21,11 / fast_pskip=0 / chroma_qp_offset=-3 / threads=6 / lookahead_threads=1 / sliced_threads=0 / nr=0 / decimate=0 / interlaced=0 / bluray_compat=0 / constrained_intra=0 / bframes=8 / b_pyramid=2 / b_adapt=2 / b_bias=0 / direct=3 / weightb=1 / open_gop=0 / weightp=2 / keyint=250 / keyint_min=25 / scenecut=40 / intra_refresh=0 / rc=2pass / mbtree=0 / bitrate=1275 / ratetol=1.0 / qcomp=0.60 / qpmin=0 / qpmax=69 / qpstep=4 / cplxblur=20.0 / qblur=0.5 / ip_ratio=1.40 / pb_ratio=1.30 / aq=1:1.00 Язык : Russian Default : Да Forced : Нет Аудио #1 Идентификатор : 2 Формат : AC-3 Формат/Информация : Audio Coding 3 Расширение режима : CM (complete main) Параметр Endianness формата : Big Идентификатор кодека : A_AC3 Продолжительность : 1 ч. 19 м. Вид битрейта : Постоянный Битрейт : 448 Кбит/сек Каналы : 6 каналов Расположение каналов : Front: L C R, Side: L R, LFE Частота : 48,0 КГц Битовая глубина : 16 бит Метод сжатия : С потерями Размер потока : 255 Мбайт (17%) Заголовок : Источник DVD Dolby Digital 5,1 448 kbps Язык : Russian Default : Да Forced : Нет Аудио #2 Идентификатор : 3 Формат : AC-3 Формат/Информация : Audio Coding 3 Расширение режима : CM (complete main) Параметр Endianness формата : Big Идентификатор кодека : A_AC3 Продолжительность : 1 ч. 19 м. Вид битрейта : Постоянный Битрейт : 448 Кбит/сек Каналы : 6 каналов Расположение каналов : Front: L C R, Side: L R, LFE Частота : 48,0 КГц Битовая глубина : 16 бит Метод сжатия : С потерями Размер потока : 255 Мбайт (17%) Заголовок : Источник DVD Dolby Digital 5,1 448 kbps Язык : English Default : Нет Forced : Нет Аудио #3 Идентификатор : 4 Формат : AC-3 Формат/Информация : Audio Coding 3 Расширение режима : CM (complete main) Параметр Endianness формата : Big Идентификатор кодека : A_AC3 Продолжительность : 1 ч. 19 м. Вид битрейта : Постоянный Битрейт : 448 Кбит/сек Каналы : 6 каналов Расположение каналов : Front: L C R, Side: L R, LFE Частота : 48,0 КГц Битовая глубина : 16 бит Метод сжатия : С потерями Размер потока : 255 Мбайт (17%) Заголовок : Источник DVD Dolby Digital 5,1 448 kbps Язык : French Default : Нет Forced : Нет Текст #1 Идентификатор : 5 Формат : UTF-8 Идентификатор кодека : S_TEXT/UTF8 Идентификатор кодека/Информация : UTF-8 Plain Text Заголовок : Источник DVD SoftSub (srt) Язык : Russian Default : Нет Forced : Нет Текст #2 Идентификатор : 6 Формат : UTF-8 Идентификатор кодека : S_TEXT/UTF8 Идентификатор кодека/Информация : UTF-8 Plain Text Заголовок : Источник DVD SoftSub (srt) Язык : English Default : Нет Forced : Нет Меню 00:00:00.000 : ru: Эпизод 1 00:04:37.200 : ru: Эпизод 2 00:09:05.360 : ru: Эпизод 3 00:13:08.800 : ru: Эпизод 4 00:18:04.280 : ru: Эпизод 5 00:22:23.120 : ru: Эпизод 6 00:25:06.920 : ru: Эпизод 7 00:30:19.000 : ru: Эпизод 8 00:33:46.400 : ru: Эпизод 9 00:39:14.000 : ru: Эпизод 10 00:43:23.680 : ru: Эпизод 11 00:47:21.760 : ru: Эпизод 12 00:53:24.000 : ru: Эпизод 13 00:59:49.000 : ru: Эпизод 14 01:07:02.400 : ru: Эпизод 15 01:12:29.280 : ru: Эпизод 15
[+] Скриншоты

Всего файлов в раздаче: 1 
Шестой.1981.DVDRip-AVC_[New-team]_by_AVP_Studio.mkv1.46 GB

Похожие раздачи по запросу - Шестой
2024-03-27 magnet Шестой день / The 6th Day (2000) BDRip от ivandubskoj | D, P | Лицензия 2.53 GB ↑ 0 ↓ 0

Комментарии


Зарегистрируйтесь чтобы добавить комментарий
Торрент клиент
byTorrent - программа для загрузки торрент-файлов.

Скачать byTorrent.exe (1,5 МБ)

Скачать byTorrent.zip (0,6 МБ)

Поддержи torrent.by
российских рублей
(300 российских рублей это 4$)

Обратная связь rss

End game ©