↑↓torrent.by
Поиск
Логин:  Регистрация
Пароль:

Caroline Shaw - Rectangles And Circumstance [24-bit Hi-Res] (2024) FLAC

download Скачать торрент-файл   magnet Магнитная ссылка Размер: 796.23 MB Добавлен: 2024-07-01 11:00
Пиры будут получены из сети DHT
Последний сидер был замечен 2024-07-10 02:34
Название: Rectangles And Circumstance Исполнитель: Caroline Shaw Год: 2024 Жанр: Pop, Rock, Alternative, Indie Издатель (лейбл): Nonesuch Продолжительность: 00:44:11 Формат/Кодек: FLAC Тип рипа: Tracks Битрейт аудио: Lossless Разрядность: 24 Bit/96 kHz
[+] Трек-лист 01. Rectangles And Circumstance (00:02:55) 02. Sing On (00:03:48) 03. Silently Invisibly (00:04:08) 04. And So (00:05:27) 05. The Parting Glass (00:05:45) 06. Slow Motion (feat. Ringdown) (00:04:02) 07. Who Turns Out The Light (00:05:25) 08. Like A Drum (00:03:59) 09. This (00:02:45) 10. To Music (00:05:57)
[+] DRM foobar2000 1.5.5 / Замер динамического диапазона (DR) 1.1.1 ------------------------------------------------------------------------------- Анализ: Caroline Shaw / Rectangles And Circumstance -------------------------------------------------------------------------------- DR Пики RMS Продолжительность трека -------------------------------------------------------------------------------- DR8 -0.39 дБ -11.66 дБ 2:55 01-Rectangles And Circumstance DR7 -0.39 дБ -10.03 дБ 3:48 02-Sing On DR8 -0.39 дБ -11.20 дБ 4:08 03-Silently Invisibly DR7 -0.39 дБ -11.82 дБ 5:27 04-And So DR8 -0.39 дБ -11.29 дБ 5:45 05-The Parting Glass DR8 -0.36 дБ -10.69 дБ 4:02 06-Slow Motion (feat. Ringdown) DR9 -0.20 дБ -12.66 дБ 5:25 07-Who Turns Out The Light DR8 -0.20 дБ -10.91 дБ 3:59 08-Like A Drum DR11 -1.29 дБ -15.64 дБ 2:45 09-This DR9 -0.39 дБ -12.83 дБ 5:57 10-To Music -------------------------------------------------------------------------------- Количество треков: 10 Реальные значения DR: DR8 Частота: 96000 Гц Каналов: 2 Разрядность: 24 Битрейт: 2587 кбит/с Кодек: FLAC ================================================================================
Время раздачи: 24/7 (минимум до появления первых 3-5 скачавших, на раздачи не возвращаюсь) Первое правило участника файлообмена: "Скачал сам - дай скачать другому!"

Всего файлов в раздаче: 11 
01. Rectangles and Circumstance.flac53.64 MB
02. Sing On.flac72.12 MB
03. Silently Invisibly.flac78.54 MB
04. And So.flac91.92 MB
05. The Parting Glass.flac96.35 MB
06. Slow Motion (feat. Ringdown).flac76.35 MB
07. Who Turns Out The Light.flac96.33 MB
08. Like A Drum.flac75.64 MB
09. This.flac45.21 MB
10. To Music.flac110.10 MB
Показать все файлы

Комментарии


Зарегистрируйтесь чтобы добавить комментарий
Торрент клиент
byTorrent - программа для загрузки торрент-файлов.

Скачать byTorrent.exe (1,5 МБ)

Скачать byTorrent.zip (0,6 МБ)

Поддержи torrent.by
российских рублей
(300 российских рублей это 4$)

Обратная связь rss

End game ©