↑↓torrent.by
Поиск
Логин:  Регистрация
Пароль:

Конан-варвар / Conan the Barbarian (2011) BDRemux 1080p | D

download Скачать торрент-файл   magnet Магнитная ссылка Размер: 22.26 GB Добавлен: 2024-07-01 11:00
Пиры будут получены из сети DHT
Последний сидер был замечен 2024-07-01 11:00
Информация о фильме Название: Конан-варвар Оригинальное название: Conan the Barbarian Год выхода: 2011 Жанр: фэнтези, боевик, приключения Режиссер: Маркус Ниспел В ролях: Джейсон Момоа, Стивен Лэнг, Рэйчел Николс, Роуз МакГоун, Рон Перлман, Нонсо Анози, Саид Тагмауи, Боб Сапп, Лео Ховард, Стив О’Доннелл О фильме: Природа наделила его силой. Гибель отца сделала его свирепым. Великий киммерийский воин Конан отправляется в дальнее странствие, чтобы совершить отмщение за кровь своего рода. Но поиски, которые начинаются как личная вендетта, вскоре оборачиваются эпической схваткой со сверхъестественными силами, поработившими народы великой Хайбории. Киммерийский воин — последняя надежда на спасение… Страна: США Продолжительность: 01:52:42 Перевод: Дублированный + Оригинальная аудиодорожка Файл Кодек: MPEG-4 Качество: BDRemux 1080p Видео: 1920x1080, 23,976 fps, 20972 Kbps Аудио 1: Russian: DTS 5.1, 48 kHz, 1510 kbps avg |Дубляж| Аудио 2: English: DTS-HD MA 7.1, 48 kHz, 5868 kbps avg (DTS Core: 5.1 / 48 kHz / 1509 kbps / 24-bit) Субтитры: русские, английские
[+] Скриншоты
[+] ИнфоGeneral Unique ID : 222427236646438362525958085555177370885 (0xA755ED73F28E213D882A8BBB791BB505) Complete name : D:Conan.the.Barbarian.2011.BDRemux.mkv Format : Matroska File size : 22.3 GiB Duration : 1h 52mn Overall bit rate : 28.3 Mbps Movie name : Конан-варвар Encoded date : UTC 2012-03-02 06:30:33 Writing application : mkvmerge v5.1.0 ('And so it goes') built on Nov 28 2011 23:58:28 Writing library : libebml v1.2.3 + libmatroska v1.3.0 Video ID : 1 Format : AVC Format/Info : Advanced Video Codec Format profile : High@L4.1 Format settings, CABAC : Yes Format settings, ReFrames : 4 frames Format settings, GOP : M=1, N=24 Codec ID : V_MPEG4/ISO/AVC Duration : 1h 52mn Bit rate mode : Variable Bit rate : 24.6 Mbps Maximum bit rate : 32.0 Mbps Width : 1 920 pixels Height : 1 080 pixels Display aspect ratio : 16:9 Frame rate : 23.976 fps Color space : YUV Chroma subsampling : 4:2:0 Bit depth : 8 bits Scan type : Progressive Bits/(Pixel*Frame) : 0.494 Stream size : 19.4 GiB (87%) Title : Конан-варвар Language : English Audio #1 ID : 2 Format : DTS Format/Info : Digital Theater Systems Codec ID : A_DTS Duration : 1h 52mn Bit rate mode : Constant Bit rate : 1 510 Kbps Channel(s) : 6 channels Channel positions : Front: L C R, Side: L R, LFE Sampling rate : 48.0 KHz Bit depth : 24 bits Compression mode : Lossy Stream size : 1.19 GiB (5%) Title : DTS - Дубляж Language : Russian Audio #2 ID : 3 Format : DTS Format/Info : Digital Theater Systems Format profile : MA / Core Codec ID : A_DTS Duration : 1h 52mn Bit rate mode : Variable Bit rate : 1 597 Kbps / 1 510 Kbps Channel(s) : 8 channels / 6 channels Channel positions : Front: L C R, Side: L R, Back: L R, LFE / Front: L C R, Side: L R, LFE Sampling rate : 48.0 KHz Bit depth : 24 bits Compression mode : Lossless / Lossy Title : DTS-HD Language : English Text #1 ID : 4 Format : UTF-8 Codec ID : S_TEXT/UTF8 Codec ID/Info : UTF-8 Plain Text Language : Russian Text #2 ID : 5 Format : UTF-8 Codec ID : S_TEXT/UTF8 Codec ID/Info : UTF-8 Plain Text Language : English Menu 00:00:00.000 : en:Chapter 01 00:08:11.561 : en:Chapter 02 00:15:34.461 : en:Chapter 03 00:22:14.653 : en:Chapter 04 00:29:43.184 : en:Chapter 05 00:36:49.485 : en:Chapter 06 00:43:15.204 : en:Chapter 07 00:50:17.459 : en:Chapter 08 00:57:29.891 : en:Chapter 09 01:04:12.168 : en:Chapter 10 01:10:35.467 : en:Chapter 11 01:17:48.567 : en:Chapter 12 01:24:50.697 : en:Chapter 13 01:32:22.815 : en:Chapter 14 01:40:48.529 : en:Chapter 15 01:48:00.377 : en:Chapter 16

Всего файлов в раздаче: 1 
Conan.the.Barbarian.2011.BDRemux.mkv22.26 GB

Похожие раздачи по запросу - Конан-варвар
2024-07-01 magnet Конан-варвар / Conan the Barbarian (2011) BDRip-AVC от ExKinoRay | D 745.82 MB ↑ 0 ↓ 0
2024-06-30 magnet Конан-варвар / Conan the Barbarian (2011) BDRip от HQCLUB | Лицензия 2.18 GB ↑ 0 ↓ 0
2024-06-29 magnet Артур Конан Дойль - Этюд в багровых тонах. Знак четырех. Записки о Шерлоке Холмсе (2024) МР3 871.73 MB ↑ 0 ↓ 0
2024-06-18 magnet Артур Конан Дойль - Письма молодого врача. Загородные приключения (2024) MP3 647.71 MB ↑ 0 ↓ 0
2024-04-05 magnet Артур Конан Дойль - Его прощальный поклон. Архив Шерлока Холмса (2022) MP3 675.08 MB ↑ 0 ↓ 0

Комментарии


Зарегистрируйтесь чтобы добавить комментарий
Торрент клиент
byTorrent - программа для загрузки торрент-файлов.

Скачать byTorrent.exe (1,5 МБ)

Скачать byTorrent.zip (0,6 МБ)

Поддержи torrent.by
российских рублей
(300 российских рублей это 4$)

Обратная связь rss

End game ©