↑↓torrent.by
Поиск
Логин:  Регистрация
Пароль:

Охотники на ведьм / Hansel & Gretel: Witch Hunters (2013) BDRip 1080p HEVC от qusi555 | Лицензия | Theatrical Cut

download Скачать торрент-файл   magnet Магнитная ссылка Размер: 4.48 GB Добавлен: 2024-07-01 11:00
Пиры будут получены из сети DHT
Последний сидер был замечен 2024-07-03 21:54
Информация о фильме Название: Охотники на ведьм Оригинальное название: Hansel & Gretel: Witch Hunters Страна: США, Германия Год выпуска: 2013 Жанр: ужасы, фэнтези, боевик Страна: США, Германия Студия: Metro-Goldwyn-Mayer (MGM), Paramount Pictures Перевод: Профессиональный (полное дублирование) Лицензия Оригинальная аудиодорожка: английский Режиссер: Томми Виркола / Tommy Wirkola Актеры: Джереми Реннер, Джемма Артертон, Фамке Янссен, Пихла Виитала, Томас Манн, Дерек Мирс, Петер Стормаре, Бьорн Сундквист, Райнер Бок, Робин Аткин Даунс Роли дублировали: Илья Исаев, Ирина Киреева, Ольга Плетнёва, Валентина Абрамова, Николай Быстров Описание фильма: Едва не погибнув в лапах ужасной ведьмы, Гензель и Гретель стали только сильнее. Одержимые местью, они ведут отчаянную борьбу со злом, даже не подозревая, что их поджидает нечто куда более опасное… собственное прошлое… Файл Продолжительность: 01:27:57 Перевод: Дублированный | Лицензия BD CEE Кодек: HeVC/x265 Источник: Bluray Disc 1080p CEE Качество: BDRip 1080p Видео: 1920x800p, 5813 Kbps, 23.976 (24000/1001) fps Аудио1: 48 kHz, AC3, 5.1, 640 Kbps | Лицензия| Bluray Disc CEE Аудио2: 48 kHz, AC3, 5.1, 640 Kbps | Оригинал | Dolby TrueHD Convert Audio Cубтитры: English, Arabic, 3xChinese, Croatian, Czech, Danish, Estonian, Finnish, Greek, Hebrew, Hindi, Hungarian, Icelandic, Indonesian, Korean, Latvian, Lithuanian, Malay, Norwegian, Polish, Portuguese, Romanian, Russian, Serbian, Slovak, Slovenian, Swedish, Thai, Turkish, Ukrainian . Формат субтитров: prerendered (Blu-ray/PGS/SUP) Сэмпл: http://sendfile.su/1246685 Автор рипа: qusi555 (Азербайджанский РиППеР)
[+] Скриншоты
[+] Mediaİnfo Format : Matroska Format version : Version 4 / Version 2 File size : 4.48 GiB Duration : 1h 27mn Overall bit rate : 7 286 Kbps Movie name : Rip by qusi555 (Baku Azerbaijan) Encoded date : UTC 2016-06-30 21:37:23 Writing application : mkvmerge v8.9.0 ('Father Daughter') 32bit Writing library : libebml v1.3.3 + libmatroska v1.4.4 Video ID : 1 Format : HEVC Format/Info : High Efficiency Video Coding Format profile : Main@L4@Main Codec ID : V_MPEGH/ISO/HEVC Duration : 1h 27mn Bit rate : 5 813 Kbps Width : 1 920 pixels Height : 800 pixels Display aspect ratio : 2.40:1 Frame rate mode : Constant Frame rate : 23.976 (24000/1001) fps Color space : YUV Chroma subsampling : 4:2:0 Bit depth : 8 bits Bits/(Pixel*Frame) : 0.158 Stream size : 3.57 GiB (80%) Title : Rip by qusi555 (Baku Azerbaijan) Writing library : x265 1.9+54-291beccb6760: 8bit+10bit+12bit Encoding settings : wpp / ctu=64 / min-cu-size=8 / max-tu-size=32 / tu-intra-depth=1 / tu-inter-depth=1 / me=2 / subme=7 / merange=92 / no-rect / no-amp / max-merge=2 / temporal-mvp / no-early-skip / rdpenalty=0 / no-tskip / no-tskip-fast / strong-intra-smoothing / no-lossless / no-cu-lossless / no-constrained-intra / no-fast-intra / open-gop / no-temporal-layers / interlace=0 / keyint=250 / min-keyint=23 / scenecut=40 / rc-lookahead=20 / lookahead-slices=5 / bframes=4 / bframe-bias=0 / b-adapt=2 / ref=3 / limit-refs=3 / no-limit-modes / weightp / no-weightb / aq-mode=1 / qg-size=32 / aq-strength=1.00 / cbqpoffs=0 / crqpoffs=0 / rd=3 / psy-rd=2.00 / rdoq-level=0 / psy-rdoq=0.00 / no-rd-refine / signhide / deblock / sao / no-sao-non-deblock / b-pyramid / cutree / no-intra-refresh / rc=2 / pass / bitrate=5813 / qcomp=0.60 / qpmin=0 / qpmax=51 / qpstep=4 / cplxblur=20.0 / qblur=0.5 / ipratio=1.40 / pbratio=1.30 Default : Yes Forced : No Audio #1 ID : 2 Format : AC-3 Format/Info : Audio Coding 3 Mode extension : CM (complete main) Format settings, Endianness : Big Codec ID : A_AC3 Duration : 1h 27mn Bit rate mode : Constant Bit rate : 640 Kbps Channel(s) : 6 channels Channel positions : Front: L C R, Side: L R, LFE Sampling rate : 48.0 KHz Frame rate : 31.250 fps (1536 spf) Compression mode : Lossy Stream size : 403 MiB (9%) Title : BD CEE RUS Language : Russian Default : Yes Forced : No Audio #2 ID : 3 Format : AC-3 Format/Info : Audio Coding 3 Mode extension : CM (complete main) Format settings, Endianness : Big Codec ID : A_AC3 Duration : 1h 27mn Bit rate mode : Constant Bit rate : 640 Kbps Channel(s) : 6 channels Channel positions : Front: L C R, Side: L R, LFE Sampling rate : 48.0 KHz Frame rate : 31.250 fps (1536 spf) Compression mode : Lossy Stream size : 403 MiB (9%) Title : TrueHD convert ENG audio Language : English Default : No Forced : No Subtitles: Presentation Graphics English 20,326 kbps Presentation Graphics Arabic 10,236 kbps Presentation Graphics Chinese 14,608 kbps Presentation Graphics Chinese 15,950 kbps Presentation Graphics Chinese 19,805 kbps Presentation Graphics Croatian 17,058 kbps Presentation Graphics Czech 17,424 kbps Presentation Graphics Danish 16,389 kbps Presentation Graphics Estonian 18,756 kbps Presentation Graphics Finnish 16,850 kbps Presentation Graphics Greek 20,365 kbps Presentation Graphics Hebrew 13,678 kbps Presentation Graphics Hindi 16,248 kbps Presentation Graphics Hungarian 20,886 kbps Presentation Graphics Icelandic 19,557 kbps Presentation Graphics Indonesian 20,877 kbps Presentation Graphics Korean 12,761 kbps Presentation Graphics Latvian 19,571 kbps Presentation Graphics Lithuanian 18,504 kbps Presentation Graphics Malay 24,048 kbps Presentation Graphics Norwegian 18,074 kbps Presentation Graphics Polish 18,302 kbps Presentation Graphics Portuguese 19,221 kbps Presentation Graphics Romanian 17,263 kbps Presentation Graphics Russian 19,721 kbps Presentation Graphics Serbian 18,115 kbps Presentation Graphics Slovak 17,274 kbps Presentation Graphics Slovenian 15,608 kbps Presentation Graphics Swedish 17,200 kbps Presentation Graphics Thai 15,097 kbps Presentation Graphics Turkish 19,395 kbps Presentation Graphics Ukrainian 20,551 kbps
[+] Внимание! HEVC *H.265/HEVC (High Efficiency Video Coding) - это новый стандарт кодирования видео. *Рипы в фомате HEVC, в настоящее время не поддерживается большинством аппаратных проигрывателей. *Для корректного воспроизведения может потребоваться обновление ПО. *Стандарт H.265/HEVC является логическим продолжением стандарта H.264/AVC (Advanced Video Coding), и характеризуется более эффективными алгоритмами сжатия, а также поддержкой высокого разрешения вплоть до 8K UHD (8192x4320). Первая версия стандарта H.265 была опубликована в начале 2013 года. Любителям решения из коробки - установить последнюю версию на выбор: Media Player Classic - Black Edition (MPC-BE) VLC media player Daum Pot Player GOM Media Player Любителям WMP и других плееров, использующих по умолчанию для воспроизведения системные кодеки+сплитеры - установить K-Lite Codec Pack версии 10.1.0 и выше. Любимые плееры, не использующии по умолчанию для воспроизведения системные кодеки+сплитеры, нужно перенастроить на использование оных.

Всего файлов в раздаче: 1 
Охотники на ведьм Hansel & Gretel Witch Hunters (2013) BDRip 1080p HEVC от qusi555 Лицензия Theatrical Cut.mkv4.48 GB

Похожие раздачи по запросу - Охотники
2024-07-19 magnet Охотники за привидениями: Леденящий ужас / Мисливці на привидів: Крижана імперія / Ghostbusters: Frozen Empire (2024) BDRemux 1080p | D | UKR 25.33 GB ↑ 0 ↓ 1
2024-07-17 magnet Павел Барчук - Веер Миров 01, Охотники за Попаданцами (2024) МР3 367.77 MB ↑ 0 ↓ 0
2024-07-03 magnet Охотники из рая / The Hunted (2024) WEB-DLRip-AVC от New-Team | D 1.65 GB ↑ 0 ↓ 0
2024-07-03 magnet Охотники из рая / The Hunted (2024) WEB-DLRip от MegaPeer | D 1.46 GB ↑ 0 ↓ 0
2024-07-03 magnet Охотники из рая / The Hunted (2024) WEB-DL 1080p | D 3.85 GB ↑ 0 ↓ 2
2024-07-03 magnet Охотники из рая / The Hunted (2024) WEB-DLRip от DoMiNo & селезень | D 1.37 GB ↑ 0 ↓ 0
2024-07-01 magnet Охотники на ведьм / Hansel and Gretel: Witch Hunters (2013) BDRip 720p от Leonardo and Scarabey | Лицензия | Расширенная версия 2.66 GB ↑ 0 ↓ 0

Комментарии


Зарегистрируйтесь чтобы добавить комментарий
Торрент клиент
byTorrent - программа для загрузки торрент-файлов.

Скачать byTorrent.exe (1,5 МБ)

Скачать byTorrent.zip (0,6 МБ)

Поддержи torrent.by
российских рублей
(300 российских рублей это 4$)

Обратная связь rss

End game ©