↑↓torrent.by
Поиск
Логин:  Регистрация
Пароль:

Предчувствие / La bête / The Beast (2023) BDRip 1080p от New-Team | P | HDRezka Studio

download Скачать торрент-файл   magnet Магнитная ссылка Размер: 17.61 GB Раздают: 0 Качают: 1 Добавлен: 2024-07-01 11:00
Пиры будут получены из сети DHT
Последний сидер был замечен 2024-07-15 17:19
Предчувствие / La bête / The Beast Год выпуска: 2023 Выпущено: Франция, Канада, Les Films du Bélier, My New Picture, Arte France Cinéma Жанр: фантастика, триллер, драма, мелодрама Режиссер: Бертран Бонелло / Bertrand Bonello В ролях: Леа Сейду, Джордж Маккэй, Гуслаги Маланга, Даша Некрасова, Мартин Скали, Элина Ловенсон, Марта Хоскинс, Жюлия Фор, Кестер Лавлэйс, Фелисьен Пино О фильме: В будущем человечество нашло способ избавиться от ненужных эмоций. Решившись на очистку ДНК, Габриэль начинает путешествие по своим прошлым жизням, в каждой из которых встречает Луи. Она ощущает мгновенное взаимное притяжение, но ее преследует предчувствие, что произойдет нечто страшное. Продолжительность: 02:25:58 Перевод: Профессиональный (многоголосый, закадровый) | HDRezka Studio Субтитры: Русские (forced), английские (full) Раздача от: Автор релиза: JNS82. Формат: MKV Качество: BDRip 1080p | SbR Видео: MPEG-4 AVC, (1.85:1), 1920x1038, 16,6 Мбит/с, 24,000 fps Аудио #1: 48 kHz, AC3 Dolby Digital, 2/0 (L,R) ch, ~ 192 kbps | RUS | Аудио #2: 48 kHz, AC3 Dolby Digital, 3/2 (L,C,R,l,r) + LFE ch, ~ 448 kbps | FRE |
[+] MediaInfoОбщее Уникальный идентификатор : 134709678979567018236812771494893922801 (0x655823F4D463F65202C4FB98932729F1) Полное имя : D:TorrentsLa.bete.2023.BDRip.1080p_от New-Team.mkv Формат : Matroska Версия формата : Version 4 Размер файла : 17,6 Гбайт Продолжительность : 2 ч. 25 м. Общий поток : 17,3 Мбит/сек Название фильма : La.bete.2023.BDRip.1080p_от New-Team Дата кодирования : UTC 2024-07-01 02:45:35 Программа кодирования : mkvmerge v79.0 ('Funeral Pyres') 64-bit Библиотека кодирования : libebml v1.4.4 + libmatroska v1.7.1 Видео Идентификатор : 1 Формат : AVC Формат/Информация : Advanced Video Codec Профиль формата : High@L4.1 Настройки формата : CABAC / 4 Ref Frames Параметр CABAC формата : Да Параметр RefFrames формата : 4 кадра Идентификатор кодека : V_MPEG4/ISO/AVC Продолжительность : 2 ч. 25 м. Битрейт : 16,6 Мбит/сек Ширина : 1 920 пикселей Высота : 1 038 пикселей Соотношение сторон : 1,85:1 Режим частоты кадров : Постоянный Частота кадров : 24,000 кадра/сек Цветовое пространство : YUV Субдискретизация насыщенности : 4:2:0 Битовая глубина : 8 бит Тип развёртки : Прогрессивная Бит/(Пиксели*Кадры) : 0.348 Размер потока : 17,0 Гбайт (96%) Библиотека кодирования : x264 core 164 r3179+50 a40a721 tMod@devel Настройки программы : cabac=1 / ref=4 / deblock=1:-3:-3 / analyse=0x3:0x133 / me=umh / subme=11 / psy=1 / fade_compensate=0.00 / psy_rd=1.00:0.00 / mixed_ref=1 / me_range=32 / chroma_me=1 / trellis=2 / 8x8dct=1 / cqm=0 / deadzone=21,11 / fast_pskip=1 / chroma_qp_offset=-2 / threads=32 / lookahead_threads=8 / sliced_threads=0 / nr=0 / decimate=1 / interlaced=0 / bluray_compat=0 / constrained_intra=0 / fgo=0 / bframes=10 / b_pyramid=2 / b_adapt=2 / b_bias=0 / direct=3 / weightb=1 / open_gop=0 / weightp=2 / keyint=250 / keyint_min=24 / scenecut=40 / intra_refresh=0 / rc=crf / mbtree=0 / crf=17.0000 / qcomp=0.60 / qpmin=0:0:0 / qpmax=69:69:69 / qpstep=4 / ip_ratio=1.25 / pb_ratio=1.20 / aq=3:0.80 / aq-sensitivity=10.00 / aq-factor=1.00:1.00:1.00:1.00 / aq2=0 / aq3=0 Язык : French Default : Да Forced : Нет Аудио #1 Идентификатор : 2 Формат : AC-3 Формат/Информация : Audio Coding 3 Коммерческое название : Dolby Digital Идентификатор кодека : A_AC3 Продолжительность : 2 ч. 25 м. Вид битрейта : Постоянный Битрейт : 192 Кбит/сек Каналы : 2 канала Channel layout : L R Частота : 48,0 КГц Частота кадров : 31,250 кадров/сек (1536 SPF) Метод сжатия : С потерями Размер потока : 200 Мбайт (1%) Заголовок : MVO - HDRezka Studio Язык : Russian Service kind : Complete Main Default : Да Forced : Нет Аудио #2 Идентификатор : 3 Формат : AC-3 Формат/Информация : Audio Coding 3 Коммерческое название : Dolby Digital Идентификатор кодека : A_AC3 Продолжительность : 2 ч. 25 м. Вид битрейта : Постоянный Битрейт : 448 Кбит/сек Каналы : 6 каналов Channel layout : L R C LFE Ls Rs Частота : 48,0 КГц Частота кадров : 31,250 кадров/сек (1536 SPF) Метод сжатия : С потерями Размер потока : 468 Мбайт (3%) Заголовок : Original Язык : French Service kind : Complete Main Default : Нет Forced : Нет Текст #1 Идентификатор : 4 Формат : UTF-8 Идентификатор кодека : S_TEXT/UTF8 Идентификатор кодека/Информация : UTF-8 Plain Text Продолжительность : 1 ч. 3 м. Битрейт : 1 бит/сек Count of elements : 11 Размер потока : 665 байт (0%) Заголовок : Язык : Russian Default : Да Forced : Нет Текст #2 Идентификатор : 5 Формат : UTF-8 Идентификатор кодека : S_TEXT/UTF8 Идентификатор кодека/Информация : UTF-8 Plain Text Продолжительность : 2 ч. 24 м. Битрейт : 20 бит/сек Count of elements : 847 Размер потока : 21,3 Кбайт (0%) Заголовок : Язык : English Default : Нет Forced : Нет Меню 00:00:00.000 : en:Chapter 01 00:15:41.208 : en:Chapter 02 00:25:11.042 : en:Chapter 03 00:34:58.875 : en:Chapter 04 00:46:25.500 : en:Chapter 05 00:56:40.833 : en:Chapter 06 01:12:26.500 : en:Chapter 07 01:24:46.625 : en:Chapter 08 01:37:17.792 : en:Chapter 09 01:51:29.833 : en:Chapter 10 02:00:03.208 : en:Chapter 11 02:15:39.542 : en:Chapter 12 02:25:57.958 : en:Chapter 13

Всего файлов в раздаче: 1 
La.bete.2023.BDRip.1080p_от New-Team.mkv17.61 GB

Похожие раздачи по запросу - Предчувствие
2024-07-19 magnet Предчувствие / La bête / The Beast (2023) BDRip 1080p от Generalfilm | D 8.20 GB ↑ 0 ↓ 1
2024-07-15 magnet Предчувствие / La bête / The Beast (2023) BDRip от DoMiNo & селезень | D 1.46 GB ↑ 0 ↓ 0
2024-07-15 magnet Предчувствие / La bête / The Beast (2023) BDRip 720p от DoMiNo & селезень | D, P | CPI Films, HDRezka Studio 5.78 GB ↑ 5 ↓ 0
2024-07-15 magnet Предчувствие / La bête / The Beast (2023) BDRip 1080p | D, P 18.26 GB ↑ 1 ↓ 0
2024-07-13 magnet Предчувствие / La bête / The Beast (2023) WEB-DL 1080p | D | CPI Films 4.58 GB ↑ 0 ↓ 0
2024-07-01 magnet Предчувствие / La bête / The Beast (2023) BDRip от DoMiNo & селезень | P | HDRezka Studio 1.46 GB ↑ 0 ↓ 1
2024-07-01 magnet Предчувствие / La bête / The Beast (2023) BDRip 720p от DoMiNo & селезень | P | HDRezka Studio 5.32 GB ↑ 0 ↓ 1

Комментарии


Зарегистрируйтесь чтобы добавить комментарий
Торрент клиент
byTorrent - программа для загрузки торрент-файлов.

Скачать byTorrent.exe (1,5 МБ)

Скачать byTorrent.zip (0,6 МБ)

Поддержи torrent.by
российских рублей
(300 российских рублей это 4$)

Обратная связь rss

End game ©