↑↓torrent.by
Поиск
Логин:  Регистрация
Пароль:

Предчувствие / La bête / The Beast (2023) BDRip от New-Team | P | HDRezka Studio

download Скачать торрент-файл   magnet Магнитная ссылка Размер: 1.46 GB Добавлен: 2024-07-01 11:00
Пиры будут получены из сети DHT
Последний сидер был замечен сегодня в 08:30
Предчувствие / La bête / The Beast Год выпуска: 2023 Выпущено: Франция, Канада, Les Films du Bélier, My New Picture, Arte France Cinéma Жанр: фантастика, триллер, драма, мелодрама Режиссер: Бертран Бонелло / Bertrand Bonello В ролях: Леа Сейду, Джордж Маккэй, Гуслаги Маланга, Даша Некрасова, Мартин Скали, Элина Ловенсон, Марта Хоскинс, Жюлия Фор, Кестер Лавлэйс, Фелисьен Пино О фильме: В будущем человечество нашло способ избавиться от ненужных эмоций. Решившись на очистку ДНК, Габриэль начинает путешествие по своим прошлым жизням, в каждой из которых встречает Луи. Она ощущает мгновенное взаимное притяжение, но ее преследует предчувствие, что произойдет нечто страшное. Продолжительность: 02:25:58 Перевод: Профессиональный (многоголосый, закадровый) | HDRezka Studio Субтитры: Русские (forced), Раздача от: Автор релиза: JNS82. Формат: AVI Качество: BDRip | The.Beast.2024.REPACK.1080p.BluRay.REMUX.AVC.DTS-HD.MA.5.1-TRiToN Видео: 704x384 (1.85:1), 24,000 fps, XviD MPEG-4 ~ 1234 kbps avg, 0.190 bit/pixel, build 73 Аудио: 48 kHz, AC3 Dolby Digital, 2/0 (L,R) ch, ~ 192 kbps | RUS |
[+] MediaInfoОбщее Полное имя : D:TorrentsLa.Bete.2023.BDRip_от New-TeamLa.Bete.2023.BDRip_от New-Team.avi Формат : AVI Формат/Информация : Audio Video Interleave Размер файла : 1,46 Гбайт Продолжительность : 2 ч. 25 м. Общий поток : 1 435 Кбит/сек Программа кодирования : VirtualDubMod 1.5.10.2 (build 2540/release) Библиотека кодирования : VirtualDubMod build 2540/release Видео Идентификатор : 0 Формат : MPEG-4 Visual Профиль формата : Advanced Simple@L5 Настройки формата : BVOP1 / Custom Matrix Параметр BVOP формата : 1 Параметр QPel формата : Нет Параметр GMC формата : Без точки перехода Параметр матрицы формата : Выборочная Идентификатор кодека : XVID Идентификатор кодека/Подсказка : XviD Продолжительность : 2 ч. 25 м. Битрейт : 1 234 Кбит/сек Ширина : 704 пикселя Высота : 384 пикселя Соотношение сторон : 1,85:1 Частота кадров : 24,000 кадра/сек Цветовое пространство : YUV Субдискретизация насыщенности : 4:2:0 Битовая глубина : 8 бит Тип развёртки : Прогрессивная Метод сжатия : С потерями Бит/(Пиксели*Кадры) : 0.190 Размер потока : 1,26 Гбайт (86%) Библиотека кодирования : XviD 73 Аудио Идентификатор : 1 Формат : AC-3 Формат/Информация : Audio Coding 3 Коммерческое название : Dolby Digital Идентификатор кодека : 2000 Продолжительность : 2 ч. 25 м. Вид битрейта : Постоянный Битрейт : 192 Кбит/сек Каналы : 2 канала Channel layout : L R Частота : 48,0 КГц Частота кадров : 31,250 кадров/сек (1536 SPF) Метод сжатия : С потерями Размер потока : 200 Мбайт (13%) Выравнивание : Разделение по промежуткам Продолжительность промежутка : 42 мс. (1,00 видеокадр) Время предзагрузки промежутка : 500 мс. Service kind : Complete Main

Всего файлов в раздаче: 2 
La.Bete.2023.BDRip_от New-Team.avi1.46 GB
La.Bete.2023.BDRip_от New-Team_[rus].srt1.01 kB

Похожие раздачи по запросу - Предчувствие
2024-07-19 magnet Предчувствие / La bête / The Beast (2023) BDRip 1080p от Generalfilm | D 8.20 GB ↑ 0 ↓ 1
2024-07-15 magnet Предчувствие / La bête / The Beast (2023) BDRip от DoMiNo & селезень | D 1.46 GB ↑ 0 ↓ 0
2024-07-15 magnet Предчувствие / La bête / The Beast (2023) BDRip 720p от DoMiNo & селезень | D, P | CPI Films, HDRezka Studio 5.78 GB ↑ 10 ↓ 1
2024-07-15 magnet Предчувствие / La bête / The Beast (2023) BDRip 1080p | D, P 18.26 GB ↑ 0 ↓ 0
2024-07-13 magnet Предчувствие / La bête / The Beast (2023) WEB-DL 1080p | D | CPI Films 4.58 GB ↑ 0 ↓ 0
2024-07-01 magnet Предчувствие / La bête / The Beast (2023) BDRip от DoMiNo & селезень | P | HDRezka Studio 1.46 GB ↑ 0 ↓ 0
2024-07-01 magnet Предчувствие / La bête / The Beast (2023) BDRip 720p от DoMiNo & селезень | P | HDRezka Studio 5.32 GB ↑ 1 ↓ 1

Комментарии


Зарегистрируйтесь чтобы добавить комментарий
Торрент клиент
byTorrent - программа для загрузки торрент-файлов.

Скачать byTorrent.exe (1,5 МБ)

Скачать byTorrent.zip (0,6 МБ)

Поддержи torrent.by
российских рублей
(300 российских рублей это 4$)

Обратная связь rss

End game ©