↑↓torrent.by
Поиск
Логин:  Регистрация
Пароль:

Смотрители / The Watchers (2024) WEB-DL 1080p от New-Team | P | HDRezka Studio

download Скачать торрент-файл   magnet Магнитная ссылка Размер: 3.90 GB Раздают: 1 Качают: 3 Добавлен: 2024-07-01 11:00
Пиры будут получены из сети DHT
Последний сидер был замечен сегодня в 18:57
Смотрители / The Watchers Год выпуска: 2024 Выпущено: Ирландия, США / Blinding Edge Pictures, Bord Scannán na hÉireann / The Irish Film Board, Inimitable Pictures Жанр: ужасы Режиссер: Ишана Шьямалан / Ishana Shyamalan В ролях: Дакота Фаннинг, Джорджина Кэмпбелл, Олуэн Фуэре, Оливер Финнегэн, Алистэр Браммер, Джон Линч ,Шиван Хьюлетт, Ханна Дарган, Эмили Дарган, Джоэль Фигероа О фильме: Женщина заблудилась в лесу в западной Ирландии. Она находит убежище, в котором живут еще трое незнакомцев, но каждую ночь за ними наблюдают загадочные существа. Продолжительность: 01:41:42 Перевод: Профессиональный (многоголосый, закадровый) | HDRezka Studio Субтитры: Русские (forced, full (AI)), английские (full, SDH) Раздача от: Автор релиза: JNS82. Формат: MKV Качество: WEB-DL 1080p | AMZN Видео: MPEG-4 AVC, (1,85:1), 1924@1920x1040, 4533 Кбит/с, 23,976 fps Аудио #1: 48 kHz, AC3 Dolby Digital, 2/0 (L,R) ch, ~ 192 kbps | RUS | Аудио #2: 48 kHz, E-AC3 JOC Dolby Digital, 3/2 (L,C,R,l,r) + LFE ch, ~ 768 kbps | ENG |
[+] MediaInfoОбщее Уникальный идентификатор : 110968161325156322674481540412821755242 (0x537BB0C3194A009202DC4377E1C4556A) Полное имя : D:TorrentsThe.Watchers.2024.1080p.AMZN_от New-Team.mkv Формат : Matroska Версия формата : Version 4 Размер файла : 3,90 Гбайт Продолжительность : 1 ч. 41 м. Общий поток : 5 496 Кбит/сек Название фильма : The.Watchers.2024.1080p.AMZN_от New-Team Дата кодирования : UTC 2024-07-01 05:12:16 Программа кодирования : mkvmerge v79.0 ('Funeral Pyres') 64-bit Библиотека кодирования : libebml v1.4.4 + libmatroska v1.7.1 Видео Идентификатор : 1 Формат : AVC Формат/Информация : Advanced Video Codec Профиль формата : High@L4 Настройки формата : CABAC / 4 Ref Frames Параметр CABAC формата : Да Параметр RefFrames формата : 4 кадра Идентификатор кодека : V_MPEG4/ISO/AVC Продолжительность : 1 ч. 41 м. Вид битрейта : Постоянный Битрейт : 4 533 Кбит/сек Номинальный битрейт : 10 000 Кбит/сек Ширина : 1 920 пикселей Высота : 1 040 пикселей Соотношение сторон : 1,85:1 Режим частоты кадров : Постоянный Частота кадров : 23,976 (24000/1001) кадра/сек Цветовое пространство : YUV Субдискретизация насыщенности : 4:2:0 Битовая глубина : 8 бит Тип развёртки : Прогрессивная Бит/(Пиксели*Кадры) : 0.095 Размер потока : 3,22 Гбайт (82%) Язык : English Default : Да Forced : Нет Цветовой диапазон : Limited Основные цвета : BT.709 Характеристики трансфера : BT.709 Коэффициенты матрицы : BT.709 Аудио #1 Идентификатор : 2 Формат : AC-3 Формат/Информация : Audio Coding 3 Коммерческое название : Dolby Digital Идентификатор кодека : A_AC3 Продолжительность : 1 ч. 41 м. Вид битрейта : Постоянный Битрейт : 192 Кбит/сек Каналы : 2 канала Channel layout : L R Частота : 48,0 КГц Частота кадров : 31,250 кадров/сек (1536 SPF) Метод сжатия : С потерями Размер потока : 140 Мбайт (3%) Заголовок : MVO - HDRezka Studio Язык : Russian Service kind : Complete Main Default : Да Forced : Нет Аудио #2 Идентификатор : 3 Формат : E-AC-3 JOC Формат/Информация : Enhanced AC-3 with Joint Object Coding Коммерческое название : Dolby Digital Plus with Dolby Atmos Идентификатор кодека : A_EAC3 Продолжительность : 1 ч. 41 м. Вид битрейта : Постоянный Битрейт : 768 Кбит/сек Каналы : 6 каналов Channel layout : L R C LFE Ls Rs Частота : 48,0 КГц Частота кадров : 31,250 кадров/сек (1536 SPF) Метод сжатия : С потерями Размер потока : 559 Мбайт (14%) Заголовок : Original Язык : English Service kind : Complete Main Default : Нет Forced : Нет Complexity index : 16 Number of dynamic objects : 15 Bed channel count : 1 канал Bed channel configuration : LFE Текст #1 Идентификатор : 4 Формат : UTF-8 Идентификатор кодека : S_TEXT/UTF8 Идентификатор кодека/Информация : UTF-8 Plain Text Продолжительность : 1 ч. 18 м. Битрейт : 1 бит/сек Count of elements : 19 Размер потока : 667 байт (0%) Заголовок : Язык : Russian Default : Да Forced : Нет Текст #2 Идентификатор : 5 Формат : UTF-8 Идентификатор кодека : S_TEXT/UTF8 Идентификатор кодека/Информация : UTF-8 Plain Text Продолжительность : 1 ч. 34 м. Битрейт : 75 бит/сек Count of elements : 1040 Размер потока : 51,9 Кбайт (0%) Заголовок : ] Язык : Russian Default : Нет Forced : Нет Текст #3 Идентификатор : 6 Формат : UTF-8 Идентификатор кодека : S_TEXT/UTF8 Идентификатор кодека/Информация : UTF-8 Plain Text Продолжительность : 1 ч. 34 м. Битрейт : 44 бит/сек Count of elements : 1043 Размер потока : 31,0 Кбайт (0%) Заголовок : Язык : English Default : Нет Forced : Нет Текст #4 Идентификатор : 7 Формат : UTF-8 Идентификатор кодека : S_TEXT/UTF8 Идентификатор кодека/Информация : UTF-8 Plain Text Продолжительность : 1 ч. 34 м. Битрейт : 58 бит/сек Count of elements : 1392 Размер потока : 40,2 Кбайт (0%) Заголовок : Язык : English Default : Нет Forced : Нет

Всего файлов в раздаче: 1 
The.Watchers.2024.1080p.AMZN_от New-Team.mkv3.90 GB

Похожие раздачи по запросу - Смотрители
2024-07-14 magnet Смотрители / The Watchers (2024) WEB-DL 720p от селезень | D, P | Movie Dubbing, HDrezka, Red Head Sound 2.66 GB ↑ 1 ↓ 9
2024-07-14 magnet Смотрители / The Watchers (2024) WEB-DLRip 1080p | D, P | Movie Dubbing, HDrezka, RHS 7.68 GB ↑ 0 ↓ 8
2024-07-04 magnet Смотрители / The Watchers (2024) WEB-DL 1080p | P | Red Head Sound 4.81 GB ↑ 0 ↓ 0
2024-07-03 magnet Смотрители / The Watchers (2024) WEB-DLRip-AVC | P | HDRezka Studio 1.50 GB ↑ 29 ↓ 2
2024-07-01 magnet Смотрители / The Watchers (2024) WEB-DL 720p от селезень | P | HDRezka Studio 2.11 GB ↑ 0 ↓ 0
2024-07-01 magnet Смотрители / The Watchers (2024) WEB-DLRip от DoMiNo & селезень | P | HDRezka Studio 1.37 GB ↑ 0 ↓ 0
2024-07-01 magnet Смотрители / The Watchers (2024) WEB-DLRip от AR-Team | P | HDRezka Studio 1.47 GB ↑ 0 ↓ 0

Комментарии


Зарегистрируйтесь чтобы добавить комментарий
Торрент клиент
byTorrent - программа для загрузки торрент-файлов.

Скачать byTorrent.exe (1,5 МБ)

Скачать byTorrent.zip (0,6 МБ)

Поддержи torrent.by
российских рублей
(300 российских рублей это 4$)

Обратная связь rss

End game ©