↑↓torrent.by
Поиск
Логин:  Регистрация
Пароль:

Kadavar - 3 Albums [24Bit, Hi-Res] (2011-2017) FLAC

download Скачать торрент-файл   magnet Магнитная ссылка Размер: 1.78 GB Добавлен: 2024-07-01 17:00
Пиры будут получены из сети DHT
Последний сидер был замечен 2024-07-10 02:34
Kadavar - 3 Albums (2011-2017) Жанр: Acid-Rock, Psychedelic-Rock, Hard-Rock Издание: Nuclear Blast Продолжительность: 3 CD, 02:48:38 Кодек: FLAC 24/44.1 Битрейт: Lossless|WEB-DL Тип рипа: tracks
[+] 2011 - Kadavar (The First Album Anniversary Edition 2024) https://www.qobuz.com/gb-en/album/kadavar-kadavar/nt23ftlwnmwya 2024 Robotor Records Продолжительноcть: 01:11:23 Треклиcт: 01. All Our Thoughts 02. Black Sun 03. Forgotten Past 04. Goddess of Dawn 05. Creature of the Demon 06. Purple Sage 07. Forgotten Past (Demo) 08. Black Sun (Demo) 09. Living in Your Head 10. Tomorrow's Dead 11. Broken Wings 12. The Man I Shot
[+] Отчёт DRКод:
foobar2000 2.1.5 / Замер динамического диапазона (DR) 1.1.1 Дата отчёта: 2024-06-30 13:56:44 -------------------------------------------------------------------------------- Анализ: Kadavar / Kadavar (The First Album Anniversary Edition) -------------------------------------------------------------------------------- DR Пики RMS Продолжительность трека -------------------------------------------------------------------------------- DR3 -0.06 дБ -4.20 дБ 4:37 01-All Our Thoughts DR3 0.00 дБ -4.34 дБ 6:15 02-Black Sun DR3 0.00 дБ -4.20 дБ 5:40 03-Forgotten Past DR3 0.00 дБ -4.06 дБ 4:15 04-Goddess of Dawn DR2 0.00 дБ -3.73 дБ 4:50 05-Creature of the Demon DR3 -0.06 дБ -4.88 дБ 8:14 06-Purple Sage DR6 -0.39 дБ -7.50 дБ 5:44 07-Forgotten Past (Demo) DR5 -0.24 дБ -7.43 дБ 6:07 08-Black Sun (Demo) DR5 0.00 дБ -6.59 дБ 7:02 09-Living in Your Head DR5 -0.20 дБ -6.63 дБ 6:06 10-Tomorrow's Dead DR5 -0.26 дБ -6.20 дБ 5:28 11-Broken Wings DR5 -0.26 дБ -6.22 дБ 7:05 12-The Man I Shot -------------------------------------------------------------------------------- Количество треков: 12 Реальные значения DR: DR4 Частота: 44100 Гц Каналов: 2 Разрядность: 24 Битрейт: 1629 кбит/с Кодек: FLAC ================================================================================
[+] MiКод:
Format : FLAC Format/Info : Free Lossless Audio Codec File size : 56.6 MiB Duration : 4 min 37 s Overall bit rate mode : Variable Overall bit rate : 1 713 kb/s Album : Kadavar (The First Album Anniversary Edition) Album/Performer : Kadavar Part : 1 Part/Total : 1 Track name : All Our Thoughts Track name/Position : 1 Track name/Total : 12 Performer : Kadavar Composer : Philipp Lippitz, Lupus Lindemann & Tiger Bartelt Producer : Robotor Records Label : Robotor Records Genre : Acid Rock, Psychedelic Rock, Hard Rock Recorded date : 2024-06-28 ISRC : DEZ651203140 Copyright : 2024 Robotor Records 2024 Robotor Records Cover : Yes Cover type : Cover (front) Cover MIME : image/jpeg Comment : https://www.qobuz.com/gb-en/album/kadavar-kadavar/nt23ftlwnmwya INVOLVEDPEOPLE : Philipp Lippitz, Composer - Kadavar, MainArtist - Lupus Lindemann, Composer, Lyricist - Tiger Bartelt, Composer, Lyricist ITUNESADVISORY : 0 MEDIATYPE : album UPC : 3617389204102 URL : https://www.qobuz.com/fr-fr/album/kadavar-kadavar/nt23ftlwnmwya Audio Format : FLAC Format/Info : Free Lossless Audio Codec Duration : 4 min 37 s Bit rate mode : Variable Bit rate : 1 712 kb/s Channel(s) : 2 channels Channel layout : L R Sampling rate : 44.1 kHz Bit depth : 24 bits Compression mode : Lossless Stream size : 56.6 MiB (100%) MD5 of the unencoded content : 00000000000000000000000000000000 General Complete name : C:Deemix MusicKadavar (24bit-44.1kHz)Kadavar - 2011 - Kadavar (The First Album Anniversary Edition 2024) FLAC (24bit-44.1kHz)�2 - Black Sun.flac Format : FLAC Format/Info : Free Lossless Audio Codec File size : 76.2 MiB Duration : 6 min 15 s Overall bit rate mode : Variable Overall bit rate : 1 704 kb/s Album : Kadavar (The First Album Anniversary Edition) Album/Performer : Kadavar Part : 1 Part/Total : 1 Track name : Black Sun Track name/Position : 2 Track name/Total : 12 Performer : Kadavar Composer : Philipp Lippitz, Lupus Lindemann & Tiger Bartelt Producer : Robotor Records Label : Robotor Records Genre : Acid Rock, Psychedelic Rock, Hard Rock Recorded date : 2024-06-28 ISRC : DEZ651203141 Copyright : 2024 Robotor Records 2024 Robotor Records Cover : Yes Cover type : Cover (front) Cover MIME : image/jpeg Comment : 2024 Robotor Records INVOLVEDPEOPLE : Philipp Lippitz, Composer - Kadavar, MainArtist - Lupus Lindemann, Composer, Lyricist - Tiger Bartelt, Composer, Lyricist ITUNESADVISORY : 0 MEDIATYPE : album UPC : 3617389204102 URL : https://www.qobuz.com/fr-fr/album/kadavar-kadavar/nt23ftlwnmwya Audio Format : FLAC Format/Info : Free Lossless Audio Codec Duration : 6 min 15 s Bit rate mode : Variable Bit rate : 1 703 kb/s Channel(s) : 2 channels Channel layout : L R Sampling rate : 44.1 kHz Bit depth : 24 bits Compression mode : Lossless Stream size : 76.1 MiB (100%) MD5 of the unencoded content : 00000000000000000000000000000000 General Complete name : C:Deemix MusicKadavar (24bit-44.1kHz)Kadavar - 2011 - Kadavar (The First Album Anniversary Edition 2024) FLAC (24bit-44.1kHz)�3 - Forgotten Past.flac Format : FLAC Format/Info : Free Lossless Audio Codec File size : 70.4 MiB Duration : 5 min 40 s Overall bit rate mode : Variable Overall bit rate : 1 738 kb/s Album : Kadavar (The First Album Anniversary Edition) Album/Performer : Kadavar Part : 1 Part/Total : 1 Track name : Forgotten Past Track name/Position : 3 Track name/Total : 12 Performer : Kadavar Composer : Philipp Lippitz, Lupus Lindemann & Tiger Bartelt Producer : Robotor Records Label : Robotor Records Genre : Acid Rock, Psychedelic Rock, Hard Rock Recorded date : 2024-06-28 ISRC : DEZ651203142 Copyright : 2024 Robotor Records 2024 Robotor Records Cover : Yes Cover type : Cover (front) Cover MIME : image/jpeg Comment : https://www.discogs.com/ru/release/31071224-Kadavar-Kadavar INVOLVEDPEOPLE : Philipp Lippitz, Composer - Kadavar, MainArtist - Lupus Lindemann, Composer, Lyricist - Tiger Bartelt, Composer, Lyricist ITUNESADVISORY : 0 MEDIATYPE : album UPC : 3617389204102 URL : https://www.qobuz.com/fr-fr/album/kadavar-kadavar/nt23ftlwnmwya Audio Format : FLAC Format/Info : Free Lossless Audio Codec Duration : 5 min 40 s Bit rate mode : Variable Bit rate : 1 737 kb/s Channel(s) : 2 channels Channel layout : L R Sampling rate : 44.1 kHz Bit depth : 24 bits Compression mode : Lossless Stream size : 70.4 MiB (100%) MD5 of the unencoded content : 00000000000000000000000000000000 General Complete name : C:Deemix MusicKadavar (24bit-44.1kHz)Kadavar - 2011 - Kadavar (The First Album Anniversary Edition 2024) FLAC (24bit-44.1kHz)�4 - Goddess of Dawn.flac Format : FLAC Format/Info : Free Lossless Audio Codec File size : 53.3 MiB Duration : 4 min 15 s Overall bit rate mode : Variable Overall bit rate : 1 754 kb/s Album : Kadavar (The First Album Anniversary Edition) Album/Performer : Kadavar Part : 1 Part/Total : 1 Track name : Goddess of Dawn Track name/Position : 4 Track name/Total : 12 Performer : Kadavar Composer : Philipp Lippitz, Lupus Lindemann & Tiger Bartelt Producer : Robotor Records Label : Robotor Records Genre : Acid Rock, Psychedelic Rock, Hard Rock Recorded date : 2024-06-28 ISRC : DEZ651203143 Copyright : 2024 Robotor Records 2024 Robotor Records Cover : Yes Cover type : Cover (front) Cover MIME : image/jpeg INVOLVEDPEOPLE : Philipp Lippitz, Composer - Kadavar, MainArtist - Lupus Lindemann, Composer, Lyricist - Tiger Bartelt, Composer, Lyricist ITUNESADVISORY : 0 MEDIATYPE : album UPC : 3617389204102 URL : https://www.qobuz.com/fr-fr/album/kadavar-kadavar/nt23ftlwnmwya Audio Format : FLAC Format/Info : Free Lossless Audio Codec Duration : 4 min 15 s Bit rate mode : Variable Bit rate : 1 752 kb/s Channel(s) : 2 channels Channel layout : L R Sampling rate : 44.1 kHz Bit depth : 24 bits Compression mode : Lossless Stream size : 53.3 MiB (100%) MD5 of the unencoded content : 00000000000000000000000000000000 General Complete name : C:Deemix MusicKadavar (24bit-44.1kHz)Kadavar - 2011 - Kadavar (The First Album Anniversary Edition 2024) FLAC (24bit-44.1kHz)�5 - Creature of the Demon.flac Format : FLAC Format/Info : Free Lossless Audio Codec File size : 60.6 MiB Duration : 4 min 50 s Overall bit rate mode : Variable Overall bit rate : 1 753 kb/s Album : Kadavar (The First Album Anniversary Edition) Album/Performer : Kadavar Part : 1 Part/Total : 1 Track name : Creature of the Demon Track name/Position : 5 Track name/Total : 12 Performer : Kadavar Composer : Philipp Lippitz, Lupus Lindemann & Tiger Bartelt Producer : Robotor Records Label : Robotor Records Genre : Acid Rock, Psychedelic Rock, Hard Rock Recorded date : 2024-06-28 ISRC : DEZ651203144 Copyright : 2024 Robotor Records 2024 Robotor Records Cover : Yes Cover type : Cover (front) Cover MIME : image/jpeg INVOLVEDPEOPLE : Philipp Lippitz, Composer - Kadavar, MainArtist - Lupus Lindemann, Composer, Lyricist - Tiger Bartelt, Composer, Lyricist ITUNESADVISORY : 0 MEDIATYPE : album UPC : 3617389204102 URL : https://www.qobuz.com/fr-fr/album/kadavar-kadavar/nt23ftlwnmwya Audio Format : FLAC Format/Info : Free Lossless Audio Codec Duration : 4 min 50 s Bit rate mode : Variable Bit rate : 1 751 kb/s Channel(s) : 2 channels Channel layout : L R Sampling rate : 44.1 kHz Bit depth : 24 bits Compression mode : Lossless Stream size : 60.5 MiB (100%) MD5 of the unencoded content : 00000000000000000000000000000000 General Complete name : C:Deemix MusicKadavar (24bit-44.1kHz)Kadavar - 2011 - Kadavar (The First Album Anniversary Edition 2024) FLAC (24bit-44.1kHz)�6 - Purple Sage.flac Format : FLAC Format/Info : Free Lossless Audio Codec File size : 99.3 MiB Duration : 8 min 14 s Overall bit rate mode : Variable Overall bit rate : 1 686 kb/s Album : Kadavar (The First Album Anniversary Edition) Album/Performer : Kadavar Part : 1 Part/Total : 1 Track name : Purple Sage Track name/Position : 6 Track name/Total : 12 Performer : Kadavar Composer : Philipp Lippitz, Lupus Lindemann & Tiger Bartelt Producer : Robotor Records Label : Robotor Records Genre : Acid Rock, Psychedelic Rock, Hard Rock Recorded date : 2024-06-28 ISRC : DEZ651203145 Copyright : 2024 Robotor Records 2024 Robotor Records Cover : Yes Cover type : Cover (front) Cover MIME : image/jpeg INVOLVEDPEOPLE : Philipp Lippitz, Composer - Kadavar, MainArtist - Lupus Lindemann, Composer, Lyricist - Tiger Bartelt, Composer, Lyricist ITUNESADVISORY : 0 MEDIATYPE : album UPC : 3617389204102 URL : https://www.qobuz.com/fr-fr/album/kadavar-kadavar/nt23ftlwnmwya Audio Format : FLAC Format/Info : Free Lossless Audio Codec Duration : 8 min 14 s Bit rate mode : Variable Bit rate : 1 685 kb/s Channel(s) : 2 channels Channel layout : L R Sampling rate : 44.1 kHz Bit depth : 24 bits Compression mode : Lossless Stream size : 99.2 MiB (100%) MD5 of the unencoded content : 00000000000000000000000000000000 General Complete name : C:Deemix MusicKadavar (24bit-44.1kHz)Kadavar - 2011 - Kadavar (The First Album Anniversary Edition 2024) FLAC (24bit-44.1kHz)�7 - Forgotten Past (Demo).flac Format : FLAC Format/Info : Free Lossless Audio Codec File size : 64.8 MiB Duration : 5 min 44 s Overall bit rate mode : Variable Overall bit rate : 1 581 kb/s Album : Kadavar (The First Album Anniversary Edition) Album/Performer : Kadavar Part : 1 Part/Total : 1 Track name : Forgotten Past (Demo) Track name/Position : 7 Track name/Total : 12 Performer : Kadavar Composer : Philipp Lippitz, Lupus Lindemann & Tiger Bartelt Producer : Robotor Records Label : Robotor Records Genre : Acid Rock, Psychedelic Rock, Hard Rock Recorded date : 2024-06-28 ISRC : DEZN23000027 Copyright : 2024 Robotor Records 2024 Robotor Records Cover : Yes Cover type : Cover (front) Cover MIME : image/jpeg INVOLVEDPEOPLE : Philipp Lippitz, Composer - Kadavar, MainArtist - Lupus Lindemann, Composer, Lyricist - Tiger Bartelt, Composer, Lyricist ITUNESADVISORY : 0 MEDIATYPE : album UPC : 3617389204102 URL : https://www.qobuz.com/fr-fr/album/kadavar-kadavar/nt23ftlwnmwya Audio Format : FLAC Format/Info : Free Lossless Audio Codec Duration : 5 min 44 s Bit rate mode : Variable Bit rate : 1 580 kb/s Channel(s) : 2 channels Channel layout : L R Sampling rate : 44.1 kHz Bit depth : 24 bits Compression mode : Lossless Stream size : 64.8 MiB (100%) MD5 of the unencoded content : 00000000000000000000000000000000 General Complete name : C:Deemix MusicKadavar (24bit-44.1kHz)Kadavar - 2011 - Kadavar (The First Album Anniversary Edition 2024) FLAC (24bit-44.1kHz)�8 - Black Sun (Demo).flac Format : FLAC Format/Info : Free Lossless Audio Codec File size : 67.4 MiB Duration : 6 min 7 s Overall bit rate mode : Variable Overall bit rate : 1 540 kb/s Album : Kadavar (The First Album Anniversary Edition) Album/Performer : Kadavar Part : 1 Part/Total : 1 Track name : Black Sun (Demo) Track name/Position : 8 Track name/Total : 12 Performer : Kadavar Composer : Philipp Lippitz, Lupus Lindemann & Tiger Bartelt Producer : Robotor Records Label : Robotor Records Genre : Acid Rock, Psychedelic Rock, Hard Rock Recorded date : 2024-06-28 ISRC : DEZN23000028 Copyright : 2024 Robotor Records 2024 Robotor Records Cover : Yes Cover type : Cover (front) Cover MIME : image/jpeg INVOLVEDPEOPLE : Philipp Lippitz, Composer - Kadavar, MainArtist - Lupus Lindemann, Composer, Lyricist - Tiger Bartelt, Composer, Lyricist ITUNESADVISORY : 0 MEDIATYPE : album UPC : 3617389204102 URL : https://www.qobuz.com/fr-fr/album/kadavar-kadavar/nt23ftlwnmwya Audio Format : FLAC Format/Info : Free Lossless Audio Codec Duration : 6 min 7 s Bit rate mode : Variable Bit rate : 1 539 kb/s Channel(s) : 2 channels Channel layout : L R Sampling rate : 44.1 kHz Bit depth : 24 bits Compression mode : Lossless Stream size : 67.3 MiB (100%) MD5 of the unencoded content : 00000000000000000000000000000000 General Complete name : C:Deemix MusicKadavar (24bit-44.1kHz)Kadavar - 2011 - Kadavar (The First Album Anniversary Edition 2024) FLAC (24bit-44.1kHz)�9 - Living in Your Head.flac Format : FLAC Format/Info : Free Lossless Audio Codec File size : 87.8 MiB Duration : 7 min 2 s Overall bit rate mode : Variable Overall bit rate : 1 744 kb/s Album : Kadavar (The First Album Anniversary Edition) Album/Performer : Kadavar Part : 1 Part/Total : 1 Track name : Living in Your Head Track name/Position : 9 Track name/Total : 12 Performer : Kadavar Composer : Philipp Lippitz, Lupus Lindemann & Tiger Bartelt Producer : Robotor Records Label : Robotor Records Genre : Acid Rock, Psychedelic Rock, Hard Rock Recorded date : 2024-06-28 ISRC : DEZ651203146 Copyright : 2024 Robotor Records 2024 Robotor Records Cover : Yes Cover type : Cover (front) Cover MIME : image/jpeg INVOLVEDPEOPLE : Philipp Lippitz, Composer - Kadavar, MainArtist - Lupus Lindemann, Composer, Lyricist - Tiger Bartelt, Composer, Lyricist ITUNESADVISORY : 0 MEDIATYPE : album UPC : 3617389204102 URL : https://www.qobuz.com/fr-fr/album/kadavar-kadavar/nt23ftlwnmwya Audio Format : FLAC Format/Info : Free Lossless Audio Codec Duration : 7 min 2 s Bit rate mode : Variable Bit rate : 1 743 kb/s Channel(s) : 2 channels Channel layout : L R Sampling rate : 44.1 kHz Bit depth : 24 bits Compression mode : Lossless Stream size : 87.7 MiB (100%) MD5 of the unencoded content : 00000000000000000000000000000000 General Complete name : C:Deemix MusicKadavar (24bit-44.1kHz)Kadavar - 2011 - Kadavar (The First Album Anniversary Edition 2024) FLAC (24bit-44.1kHz)10 - Tomorrow's Dead.flac Format : FLAC Format/Info : Free Lossless Audio Codec File size : 65.6 MiB Duration : 6 min 6 s Overall bit rate mode : Variable Overall bit rate : 1 503 kb/s Album : Kadavar (The First Album Anniversary Edition) Album/Performer : Kadavar Part : 1 Part/Total : 1 Track name : Tomorrow's Dead Track name/Position : 10 Track name/Total : 12 Performer : Kadavar Composer : Philipp Lippitz, Lupus Lindemann & Tiger Bartelt Producer : Robotor Records Label : Robotor Records Genre : Acid Rock, Psychedelic Rock, Hard Rock Recorded date : 2024-06-28 ISRC : DEZN23000029 Copyright : 2024 Robotor Records 2024 Robotor Records Cover : Yes Cover type : Cover (front) Cover MIME : image/jpeg INVOLVEDPEOPLE : Philipp Lippitz, Composer - Kadavar, MainArtist - Lupus Lindemann, Composer, Lyricist - Tiger Bartelt, Composer, Lyricist ITUNESADVISORY : 0 MEDIATYPE : album UPC : 3617389204102 URL : https://www.qobuz.com/fr-fr/album/kadavar-kadavar/nt23ftlwnmwya Audio Format : FLAC Format/Info : Free Lossless Audio Codec Duration : 6 min 6 s Bit rate mode : Variable Bit rate : 1 502 kb/s Channel(s) : 2 channels Channel layout : L R Sampling rate : 44.1 kHz Bit depth : 24 bits Compression mode : Lossless Stream size : 65.6 MiB (100%) MD5 of the unencoded content : 00000000000000000000000000000000 General Complete name : C:Deemix MusicKadavar (24bit-44.1kHz)Kadavar - 2011 - Kadavar (The First Album Anniversary Edition 2024) FLAC (24bit-44.1kHz)11 - Broken Wings.flac Format : FLAC Format/Info : Free Lossless Audio Codec File size : 62.0 MiB Duration : 5 min 28 s Overall bit rate mode : Variable Overall bit rate : 1 585 kb/s Album : Kadavar (The First Album Anniversary Edition) Album/Performer : Kadavar Part : 1 Part/Total : 1 Track name : Broken Wings Track name/Position : 11 Track name/Total : 12 Performer : Kadavar Composer : Philipp Lippitz, Lupus Lindemann & Tiger Bartelt Producer : Robotor Records Label : Robotor Records Genre : Acid Rock, Psychedelic Rock, Hard Rock Recorded date : 2024-06-28 ISRC : DEZN23000030 Copyright : 2024 Robotor Records 2024 Robotor Records Cover : Yes Cover type : Cover (front) Cover MIME : image/jpeg INVOLVEDPEOPLE : Philipp Lippitz, Composer - Kadavar, MainArtist - Lupus Lindemann, Composer, Lyricist - Tiger Bartelt, Composer, Lyricist ITUNESADVISORY : 0 MEDIATYPE : album UPC : 3617389204102 URL : https://www.qobuz.com/fr-fr/album/kadavar-kadavar/nt23ftlwnmwya Audio Format : FLAC Format/Info : Free Lossless Audio Codec Duration : 5 min 28 s Bit rate mode : Variable Bit rate : 1 583 kb/s Channel(s) : 2 channels Channel layout : L R Sampling rate : 44.1 kHz Bit depth : 24 bits Compression mode : Lossless Stream size : 61.9 MiB (100%) MD5 of the unencoded content : 00000000000000000000000000000000 General Complete name : C:Deemix MusicKadavar (24bit-44.1kHz)Kadavar - 2011 - Kadavar (The First Album Anniversary Edition 2024) FLAC (24bit-44.1kHz)12 - The Man I Shot.flac Format : FLAC Format/Info : Free Lossless Audio Codec File size : 82.6 MiB Duration : 7 min 5 s Overall bit rate mode : Variable Overall bit rate : 1 630 kb/s Album : Kadavar (The First Album Anniversary Edition) Album/Performer : Kadavar Part : 1 Part/Total : 1 Track name : The Man I Shot Track name/Position : 12 Track name/Total : 12 Performer : Kadavar Composer : Philipp Lippitz, Lupus Lindemann & Tiger Bartelt Producer : Robotor Records Label : Robotor Records Genre : Acid Rock, Psychedelic Rock, Hard Rock Recorded date : 2024-06-28 ISRC : DEZN23000031 Copyright : 2024 Robotor Records 2024 Robotor Records Cover : Yes Cover type : Cover (front) Cover MIME : image/jpeg Comment : https://youtu.be/qHqF22EQc3A INVOLVEDPEOPLE : Philipp Lippitz, Composer - Kadavar, MainArtist - Lupus Lindemann, Composer, Lyricist - Tiger Bartelt, Composer, Lyricist ITUNESADVISORY : 0 MEDIATYPE : album UPC : 3617389204102 URL : https://www.qobuz.com/fr-fr/album/kadavar-kadavar/nt23ftlwnmwya Audio Format : FLAC Format/Info : Free Lossless Audio Codec Duration : 7 min 5 s Bit rate mode : Variable Bit rate : 1 629 kb/s Channel(s) : 2 channels Channel layout : L R Sampling rate : 44.1 kHz Bit depth : 24 bits Compression mode : Lossless Stream size : 82.5 MiB (100%) MD5 of the unencoded content : 00000000000000000000000000000000 General Complete name : C:Deemix MusicKadavar (24bit-44.1kHz)Kadavar - 2011 - Kadavar (The First Album Anniversary Edition 2024) FLAC (24bit-44.1kHz)Cover.jpg Format : JPEG File size : 2.51 MiB Image Format : JPEG Width : 3 000 pixels Height : 3 000 pixels Color space : YUV Chroma subsampling : 4:4:4 Bit depth : 8 bits Compression mode : Lossy Stream size : 2.51 MiB (100%) ColorSpace_ICC : RGB General Complete name : C:Deemix MusicKadavar (24bit-44.1kHz)Kadavar - 2011 - Kadavar (The First Album Anniversary Edition 2024) FLAC (24bit-44.1kHz)Kadavar - 2011.jpg Format : JPEG File size : 105 KiB Image Format : JPEG Width : 598 pixels Height : 600 pixels Color space : YUV Chroma subsampling : 4:4:4 Bit depth : 8 bits Compression mode : Lossy Stream size : 105 KiB (100%) General Complete name : C:Deemix MusicKadavar (24bit-44.1kHz)Kadavar - 2011 - Kadavar (The First Album Anniversary Edition 2024) FLAC (24bit-44.1kHz)foo_dr.txt File size : 1.68 KiB
[+] 2015 - Berlin (+Digital Booklet.pdf) https://www.qobuz.com/gb-en/album/berlin-kadavar/cgq9qwuuv1p3b 2015 Nuclear Blast Продолжительноcть: 00:52:19 Треклиcт: 01. Lord of the Sky 02. Last Living Dinosaur 03. Thousand Miles Away from Home 04. Filthy Illusion 05. Pale Blue Eyes 06. Stolen Dreams 07. The Old Man 08. Spanish Wild Rose 09. See the World with Your Own Eyes 10. Circles in My Mind 11. Into the Night 12. Reich Der Träume
[+] Отчёт DRКод:
foobar2000 2.1.5 / Замер динамического диапазона (DR) 1.1.1 Дата отчёта: 2024-06-30 13:57:15 -------------------------------------------------------------------------------- Анализ: Kadavar / Berlin -------------------------------------------------------------------------------- DR Пики RMS Продолжительность трека -------------------------------------------------------------------------------- DR5 -0.71 дБ -6.28 дБ 4:28 01-Lord of the Sky DR5 -0.71 дБ -6.53 дБ 4:06 02-Last Living Dinosaur DR4 -0.71 дБ -6.61 дБ 4:54 03-Thousand Miles Away from Home DR4 -0.71 дБ -6.14 дБ 3:45 04-Filthy Illusion DR5 -0.71 дБ -7.20 дБ 3:29 05-Pale Blue Eyes DR5 -0.71 дБ -6.65 дБ 3:58 06-Stolen Dreams DR5 -0.71 дБ -6.67 дБ 4:05 07-The Old Man DR5 -0.71 дБ -6.51 дБ 4:31 08-Spanish Wild Rose DR5 -0.71 дБ -6.75 дБ 4:07 09-See the World with Your Own Eyes DR5 -0.71 дБ -7.31 дБ 3:48 10-Circles in My Mind DR6 -0.71 дБ -7.42 дБ 4:30 11-Into the Night DR7 -0.82 дБ -9.65 дБ 6:40 12-Reich Der Träume -------------------------------------------------------------------------------- Количество треков: 12 Реальные значения DR: DR5 Частота: 44100 Гц Каналов: 2 Разрядность: 24 Битрейт: 1459 кбит/с Кодек: FLAC ================================================================================
[+] MiКод:
Format : FLAC Format/Info : Free Lossless Audio Codec File size : 55.7 MiB Duration : 4 min 27 s Overall bit rate mode : Variable Overall bit rate : 1 745 kb/s Album : Berlin Album/Performer : Kadavar Part : 1 Part/Total : 1 Track name : Lord of the Sky Track name/Position : 1 Track name/Total : 12 Performer : Kadavar Composer : Simon BOUTELOUP, Christoph Bartelt & Christoph Lindemann Producer : Nuclear Blast Label : Nuclear Blast Genre : Acid Rock, Psychedelic Rock, Hard Rock Recorded date : 2015-08-21 ISRC : DED831500657 Copyright : 2015 Nuclear Blast 2015 Nuclear Blast Cover : Yes Cover type : Cover (front) Cover MIME : image/jpeg Comment : https://www.qobuz.com/gb-en/album/berlin-kadavar/cgq9qwuuv1p3b INVOLVEDPEOPLE : Simon BOUTELOUP, Composer, Lyricist - Kadavar, MainArtist - Christoph Bartelt, Composer, Lyricist - Christoph Lindemann, Composer, Lyricist ITUNESADVISORY : 0 MEDIATYPE : album UPC : 0727361351533 URL : https://www.qobuz.com/fr-fr/album/berlin-kadavar/cgq9qwuuv1p3b Audio Format : FLAC Format/Info : Free Lossless Audio Codec Duration : 4 min 27 s Bit rate mode : Variable Bit rate : 1 743 kb/s Channel(s) : 2 channels Channel layout : L R Sampling rate : 44.1 kHz Bit depth : 24 bits Compression mode : Lossless Stream size : 55.7 MiB (100%) MD5 of the unencoded content : 00000000000000000000000000000000 General Complete name : C:Deemix MusicKadavar (24bit-44.1kHz)Kadavar - 2015 - Berlin (24bit-44.1kHz)�2 - Last Living Dinosaur.flac Format : FLAC Format/Info : Free Lossless Audio Codec File size : 51.1 MiB Duration : 4 min 5 s Overall bit rate mode : Variable Overall bit rate : 1 747 kb/s Album : Berlin Album/Performer : Kadavar Part : 1 Part/Total : 1 Track name : Last Living Dinosaur Track name/Position : 2 Track name/Total : 12 Performer : Kadavar Composer : Simon BOUTELOUP, Christoph Bartelt & Christoph Lindemann Producer : Nuclear Blast Label : Nuclear Blast Genre : Acid Rock, Psychedelic Rock, Hard Rock Recorded date : 2015-08-21 ISRC : DED831500658 Copyright : 2015 Nuclear Blast 2015 Nuclear Blast Cover : Yes Cover type : Cover (front) Cover MIME : image/jpeg Comment : 2015 Nuclear Blast INVOLVEDPEOPLE : Simon BOUTELOUP, Composer, Lyricist - Kadavar, MainArtist - Christoph Bartelt, Composer, Lyricist - Christoph Lindemann, Composer, Lyricist ITUNESADVISORY : 0 MEDIATYPE : album UPC : 0727361351533 URL : https://www.qobuz.com/fr-fr/album/berlin-kadavar/cgq9qwuuv1p3b Audio Format : FLAC Format/Info : Free Lossless Audio Codec Duration : 4 min 5 s Bit rate mode : Variable Bit rate : 1 744 kb/s Channel(s) : 2 channels Channel layout : L R Sampling rate : 44.1 kHz Bit depth : 24 bits Compression mode : Lossless Stream size : 51.1 MiB (100%) MD5 of the unencoded content : 00000000000000000000000000000000 General Complete name : C:Deemix MusicKadavar (24bit-44.1kHz)Kadavar - 2015 - Berlin (24bit-44.1kHz)�3 - Thousand Miles Away from Home.flac Format : FLAC Format/Info : Free Lossless Audio Codec File size : 59.3 MiB Duration : 4 min 53 s Overall bit rate mode : Variable Overall bit rate : 1 695 kb/s Album : Berlin Album/Performer : Kadavar Part : 1 Part/Total : 1 Track name : Thousand Miles Away from Home Track name/Position : 3 Track name/Total : 12 Performer : Kadavar Composer : Simon BOUTELOUP, Christoph Bartelt & Christoph Lindemann Producer : Nuclear Blast Label : Nuclear Blast Genre : Acid Rock, Psychedelic Rock, Hard Rock Recorded date : 2015-08-21 ISRC : DED831500659 Copyright : 2015 Nuclear Blast 2015 Nuclear Blast Cover : Yes Cover type : Cover (front) Cover MIME : image/jpeg Comment : Berlin, Germany INVOLVEDPEOPLE : Simon BOUTELOUP, Composer, Lyricist - Kadavar, MainArtist - Christoph Bartelt, Composer, Lyricist - Christoph Lindemann, Composer, Lyricist ITUNESADVISORY : 0 MEDIATYPE : album UPC : 0727361351533 URL : https://www.qobuz.com/fr-fr/album/berlin-kadavar/cgq9qwuuv1p3b Audio Format : FLAC Format/Info : Free Lossless Audio Codec Duration : 4 min 53 s Bit rate mode : Variable Bit rate : 1 692 kb/s Channel(s) : 2 channels Channel layout : L R Sampling rate : 44.1 kHz Bit depth : 24 bits Compression mode : Lossless Stream size : 59.3 MiB (100%) MD5 of the unencoded content : 00000000000000000000000000000000 General Complete name : C:Deemix MusicKadavar (24bit-44.1kHz)Kadavar - 2015 - Berlin (24bit-44.1kHz)�4 - Filthy Illusion.flac Format : FLAC Format/Info : Free Lossless Audio Codec File size : 47.4 MiB Duration : 3 min 45 s Overall bit rate mode : Variable Overall bit rate : 1 765 kb/s Album : Berlin Album/Performer : Kadavar Part : 1 Part/Total : 1 Track name : Filthy Illusion Track name/Position : 4 Track name/Total : 12 Performer : Kadavar Composer : Simon BOUTELOUP, Christoph Bartelt & Christoph Lindemann Producer : Nuclear Blast Label : Nuclear Blast Genre : Acid Rock, Psychedelic Rock, Hard Rock Recorded date : 2015-08-21 ISRC : DED831500660 Copyright : 2015 Nuclear Blast 2015 Nuclear Blast Cover : Yes Cover type : Cover (front) Cover MIME : image/jpeg Comment : https://kadavarberlin.bandcamp.com/ INVOLVEDPEOPLE : Simon BOUTELOUP, Composer, Lyricist - Kadavar, MainArtist - Christoph Bartelt, Composer, Lyricist - Christoph Lindemann, Composer, Lyricist ITUNESADVISORY : 0 MEDIATYPE : album UPC : 0727361351533 URL : https://www.qobuz.com/fr-fr/album/berlin-kadavar/cgq9qwuuv1p3b Audio Format : FLAC Format/Info : Free Lossless Audio Codec Duration : 3 min 45 s Bit rate mode : Variable Bit rate : 1 762 kb/s Channel(s) : 2 channels Channel layout : L R Sampling rate : 44.1 kHz Bit depth : 24 bits Compression mode : Lossless Stream size : 47.3 MiB (100%) MD5 of the unencoded content : 00000000000000000000000000000000 General Complete name : C:Deemix MusicKadavar (24bit-44.1kHz)Kadavar - 2015 - Berlin (24bit-44.1kHz)�5 - Pale Blue Eyes.flac Format : FLAC Format/Info : Free Lossless Audio Codec File size : 43.8 MiB Duration : 3 min 28 s Overall bit rate mode : Variable Overall bit rate : 1 758 kb/s Album : Berlin Album/Performer : Kadavar Part : 1 Part/Total : 1 Track name : Pale Blue Eyes Track name/Position : 5 Track name/Total : 12 Performer : Kadavar Composer : Simon BOUTELOUP, Christoph Bartelt & Christoph Lindemann Producer : Nuclear Blast Label : Nuclear Blast Genre : Acid Rock, Psychedelic Rock, Hard Rock Recorded date : 2015-08-21 ISRC : DED831500661 Copyright : 2015 Nuclear Blast 2015 Nuclear Blast Cover : Yes Cover type : Cover (front) Cover MIME : image/jpeg Comment : https://www.discogs.com/ru/artist/2515362-Kadavar INVOLVEDPEOPLE : Simon BOUTELOUP, Composer, Lyricist - Kadavar, MainArtist - Christoph Bartelt, Composer, Lyricist - Christoph Lindemann, Composer, Lyricist ITUNESADVISORY : 0 MEDIATYPE : album UPC : 0727361351533 URL : https://www.qobuz.com/fr-fr/album/berlin-kadavar/cgq9qwuuv1p3b Audio Format : FLAC Format/Info : Free Lossless Audio Codec Duration : 3 min 28 s Bit rate mode : Variable Bit rate : 1 755 kb/s Channel(s) : 2 channels Channel layout : L R Sampling rate : 44.1 kHz Bit depth : 24 bits Compression mode : Lossless Stream size : 43.7 MiB (100%) MD5 of the unencoded content : 00000000000000000000000000000000 General Complete name : C:Deemix MusicKadavar (24bit-44.1kHz)Kadavar - 2015 - Berlin (24bit-44.1kHz)�6 - Stolen Dreams.flac Format : FLAC Format/Info : Free Lossless Audio Codec File size : 49.0 MiB Duration : 3 min 57 s Overall bit rate mode : Variable Overall bit rate : 1 730 kb/s Album : Berlin Album/Performer : Kadavar Part : 1 Part/Total : 1 Track name : Stolen Dreams Track name/Position : 6 Track name/Total : 12 Performer : Kadavar Composer : Simon BOUTELOUP, Christoph Bartelt & Christoph Lindemann Producer : Nuclear Blast Label : Nuclear Blast Genre : Acid Rock, Psychedelic Rock, Hard Rock Recorded date : 2015-08-21 ISRC : DED831500662 Copyright : 2015 Nuclear Blast 2015 Nuclear Blast Cover : Yes Cover type : Cover (front) Cover MIME : image/jpeg INVOLVEDPEOPLE : Simon BOUTELOUP, Composer, Lyricist - Kadavar, MainArtist - Christoph Bartelt, Composer, Lyricist - Christoph Lindemann, Composer, Lyricist ITUNESADVISORY : 0 MEDIATYPE : album UPC : 0727361351533 URL : https://www.qobuz.com/fr-fr/album/berlin-kadavar/cgq9qwuuv1p3b Audio Format : FLAC Format/Info : Free Lossless Audio Codec Duration : 3 min 57 s Bit rate mode : Variable Bit rate : 1 727 kb/s Channel(s) : 2 channels Channel layout : L R Sampling rate : 44.1 kHz Bit depth : 24 bits Compression mode : Lossless Stream size : 48.9 MiB (100%) MD5 of the unencoded content : 00000000000000000000000000000000 General Complete name : C:Deemix MusicKadavar (24bit-44.1kHz)Kadavar - 2015 - Berlin (24bit-44.1kHz)�7 - The Old Man.flac Format : FLAC Format/Info : Free Lossless Audio Codec File size : 51.4 MiB Duration : 4 min 5 s Overall bit rate mode : Variable Overall bit rate : 1 759 kb/s Album : Berlin Album/Performer : Kadavar Part : 1 Part/Total : 1 Track name : The Old Man Track name/Position : 7 Track name/Total : 12 Performer : Kadavar Composer : Simon BOUTELOUP, Christoph Bartelt & Christoph Lindemann Producer : Nuclear Blast Label : Nuclear Blast Genre : Acid Rock, Psychedelic Rock, Hard Rock Recorded date : 2015-08-21 ISRC : DED831500663 Copyright : 2015 Nuclear Blast 2015 Nuclear Blast Cover : Yes Cover type : Cover (front) Cover MIME : image/jpeg INVOLVEDPEOPLE : Simon BOUTELOUP, Composer, Lyricist - Kadavar, MainArtist - Christoph Bartelt, Composer, Lyricist - Christoph Lindemann, Composer, Lyricist ITUNESADVISORY : 0 MEDIATYPE : album UPC : 0727361351533 URL : https://www.qobuz.com/fr-fr/album/berlin-kadavar/cgq9qwuuv1p3b Audio Format : FLAC Format/Info : Free Lossless Audio Codec Duration : 4 min 5 s Bit rate mode : Variable Bit rate : 1 756 kb/s Channel(s) : 2 channels Channel layout : L R Sampling rate : 44.1 kHz Bit depth : 24 bits Compression mode : Lossless Stream size : 51.3 MiB (100%) MD5 of the unencoded content : 00000000000000000000000000000000 General Complete name : C:Deemix MusicKadavar (24bit-44.1kHz)Kadavar - 2015 - Berlin (24bit-44.1kHz)�8 - Spanish Wild Rose.flac Format : FLAC Format/Info : Free Lossless Audio Codec File size : 55.4 MiB Duration : 4 min 30 s Overall bit rate mode : Variable Overall bit rate : 1 717 kb/s Album : Berlin Album/Performer : Kadavar Part : 1 Part/Total : 1 Track name : Spanish Wild Rose Track name/Position : 8 Track name/Total : 12 Performer : Kadavar Composer : Simon BOUTELOUP, Christoph Bartelt & Christoph Lindemann Producer : Nuclear Blast Label : Nuclear Blast Genre : Acid Rock, Psychedelic Rock, Hard Rock Recorded date : 2015-08-21 ISRC : DED831500664 Copyright : 2015 Nuclear Blast 2015 Nuclear Blast Cover : Yes Cover type : Cover (front) Cover MIME : image/jpeg INVOLVEDPEOPLE : Simon BOUTELOUP, Composer, Lyricist - Kadavar, MainArtist - Christoph Bartelt, Composer, Lyricist - Christoph Lindemann, Composer, Lyricist ITUNESADVISORY : 0 MEDIATYPE : album UPC : 0727361351533 URL : https://www.qobuz.com/fr-fr/album/berlin-kadavar/cgq9qwuuv1p3b Audio Format : FLAC Format/Info : Free Lossless Audio Codec Duration : 4 min 30 s Bit rate mode : Variable Bit rate : 1 714 kb/s Channel(s) : 2 channels Channel layout : L R Sampling rate : 44.1 kHz Bit depth : 24 bits Compression mode : Lossless Stream size : 55.4 MiB (100%) MD5 of the unencoded content : 00000000000000000000000000000000 General Complete name : C:Deemix MusicKadavar (24bit-44.1kHz)Kadavar - 2015 - Berlin (24bit-44.1kHz)�9 - See the World with Your Own Eyes.flac Format : FLAC Format/Info : Free Lossless Audio Codec File size : 50.7 MiB Duration : 4 min 7 s Overall bit rate mode : Variable Overall bit rate : 1 719 kb/s Album : Berlin Album/Performer : Kadavar Part : 1 Part/Total : 1 Track name : See the World with Your Own Eyes Track name/Position : 9 Track name/Total : 12 Performer : Kadavar Composer : Simon BOUTELOUP, Christoph Bartelt & Christoph Lindemann Producer : Nuclear Blast Label : Nuclear Blast Genre : Acid Rock, Psychedelic Rock, Hard Rock Recorded date : 2015-08-21 ISRC : DED831500665 Copyright : 2015 Nuclear Blast 2015 Nuclear Blast Cover : Yes Cover type : Cover (front) Cover MIME : image/jpeg INVOLVEDPEOPLE : Simon BOUTELOUP, Composer, Lyricist - Kadavar, MainArtist - Christoph Bartelt, Composer, Lyricist - Christoph Lindemann, Composer, Lyricist ITUNESADVISORY : 0 MEDIATYPE : album UPC : 0727361351533 URL : https://www.qobuz.com/fr-fr/album/berlin-kadavar/cgq9qwuuv1p3b Audio Format : FLAC Format/Info : Free Lossless Audio Codec Duration : 4 min 7 s Bit rate mode : Variable Bit rate : 1 717 kb/s Channel(s) : 2 channels Channel layout : L R Sampling rate : 44.1 kHz Bit depth : 24 bits Compression mode : Lossless Stream size : 50.6 MiB (100%) MD5 of the unencoded content : 00000000000000000000000000000000 General Complete name : C:Deemix MusicKadavar (24bit-44.1kHz)Kadavar - 2015 - Berlin (24bit-44.1kHz)10 - Circles in My Mind.flac Format : FLAC Format/Info : Free Lossless Audio Codec File size : 47.4 MiB Duration : 3 min 47 s Overall bit rate mode : Variable Overall bit rate : 1 744 kb/s Album : Berlin Album/Performer : Kadavar Part : 1 Part/Total : 1 Track name : Circles in My Mind Track name/Position : 10 Track name/Total : 12 Performer : Kadavar Composer : Simon BOUTELOUP, Christoph Bartelt & Christoph Lindemann Producer : Nuclear Blast Label : Nuclear Blast Genre : Acid Rock, Psychedelic Rock, Hard Rock Recorded date : 2015-08-21 ISRC : DED831500666 Copyright : 2015 Nuclear Blast 2015 Nuclear Blast Cover : Yes Cover type : Cover (front) Cover MIME : image/jpeg INVOLVEDPEOPLE : Simon BOUTELOUP, Composer, Lyricist - Kadavar, MainArtist - Christoph Bartelt, Composer, Lyricist - Christoph Lindemann, Composer, Lyricist ITUNESADVISORY : 0 MEDIATYPE : album UPC : 0727361351533 URL : https://www.qobuz.com/fr-fr/album/berlin-kadavar/cgq9qwuuv1p3b Audio Format : FLAC Format/Info : Free Lossless Audio Codec Duration : 3 min 47 s Bit rate mode : Variable Bit rate : 1 741 kb/s Channel(s) : 2 channels Channel layout : L R Sampling rate : 44.1 kHz Bit depth : 24 bits Compression mode : Lossless Stream size : 47.3 MiB (100%) MD5 of the unencoded content : 00000000000000000000000000000000 General Complete name : C:Deemix MusicKadavar (24bit-44.1kHz)Kadavar - 2015 - Berlin (24bit-44.1kHz)11 - Into the Night.flac Format : FLAC Format/Info : Free Lossless Audio Codec File size : 56.3 MiB Duration : 4 min 30 s Overall bit rate mode : Variable Overall bit rate : 1 749 kb/s Album : Berlin Album/Performer : Kadavar Part : 1 Part/Total : 1 Track name : Into the Night Track name/Position : 11 Track name/Total : 12 Performer : Kadavar Composer : Simon BOUTELOUP, Christoph Bartelt & Christoph Lindemann Producer : Nuclear Blast Label : Nuclear Blast Genre : Acid Rock, Psychedelic Rock, Hard Rock Recorded date : 2015-08-21 ISRC : DED831500667 Copyright : 2015 Nuclear Blast 2015 Nuclear Blast Cover : Yes Cover type : Cover (front) Cover MIME : image/jpeg INVOLVEDPEOPLE : Simon BOUTELOUP, Composer, Lyricist - Kadavar, MainArtist - Christoph Bartelt, Composer, Lyricist - Christoph Lindemann, Composer, Lyricist ITUNESADVISORY : 0 MEDIATYPE : album UPC : 0727361351533 URL : https://www.qobuz.com/fr-fr/album/berlin-kadavar/cgq9qwuuv1p3b Audio Format : FLAC Format/Info : Free Lossless Audio Codec Duration : 4 min 30 s Bit rate mode : Variable Bit rate : 1 746 kb/s Channel(s) : 2 channels Channel layout : L R Sampling rate : 44.1 kHz Bit depth : 24 bits Compression mode : Lossless Stream size : 56.2 MiB (100%) MD5 of the unencoded content : 00000000000000000000000000000000 General Complete name : C:Deemix MusicKadavar (24bit-44.1kHz)Kadavar - 2015 - Berlin (24bit-44.1kHz)12 - Reich Der Träume.flac Format : FLAC Format/Info : Free Lossless Audio Codec File size : 69.6 MiB Duration : 6 min 39 s Overall bit rate mode : Variable Overall bit rate : 1 460 kb/s Album : Berlin Album/Performer : Kadavar Part : 1 Part/Total : 1 Track name : Reich Der Träume Track name/Position : 12 Track name/Total : 12 Performer : Kadavar Composer : Lutz Ulbrich Producer : Nuclear Blast Label : Nuclear Blast Genre : Acid Rock, Psychedelic Rock, Hard Rock Recorded date : 2015-08-21 ISRC : DED831500668 Copyright : 2015 Nuclear Blast 2015 Nuclear Blast Cover : Yes Cover type : Cover (front) Cover MIME : image/jpeg INVOLVEDPEOPLE : Kadavar, MainArtist - Lutz Ulbrich, Composer, Lyricist ITUNESADVISORY : 0 MEDIATYPE : album UPC : 0727361351533 URL : https://www.qobuz.com/fr-fr/album/berlin-kadavar/cgq9qwuuv1p3b Audio Format : FLAC Format/Info : Free Lossless Audio Codec Duration : 6 min 39 s Bit rate mode : Variable Bit rate : 1 459 kb/s Channel(s) : 2 channels Channel layout : L R Sampling rate : 44.1 kHz Bit depth : 24 bits Compression mode : Lossless Stream size : 69.5 MiB (100%) MD5 of the unencoded content : 00000000000000000000000000000000 General Complete name : C:Deemix MusicKadavar (24bit-44.1kHz)Kadavar - 2015 - Berlin (24bit-44.1kHz)Cover.jpg Format : JPEG File size : 1.29 MiB Image Format : JPEG Width : 1 440 pixels Height : 1 440 pixels Color space : YUV Chroma subsampling : 4:2:0 Bit depth : 8 bits Compression mode : Lossy Stream size : 1.29 MiB (100%) General Complete name : C:Deemix MusicKadavar (24bit-44.1kHz)Kadavar - 2015 - Berlin (24bit-44.1kHz)Digital Booklet.pdf Format : PDF Format version : 1.7 File size : 7.96 MiB Text Format : PDF General Complete name : C:Deemix MusicKadavar (24bit-44.1kHz)Kadavar - 2015 - Berlin (24bit-44.1kHz)foo_dr.txt File size : 1.67 KiB
[+] 2017 - Rough Times (+Digital Booklet.pdf) https://www.qobuz.com/gb-en/album/rough-times-kadavar/jcmiauffibtqc 2017 Nuclear Blast Продолжительноcть: 00:44:55 Треклиcт: 01. Rough Times 02. Into the Wormhole 03. Skeleton Blues 04. Die Baby Die 05. Vampires 06. Tribulation Nation 07. Words of Evil 08. The Lost Child 09. You Found the Best in Me 10. A L'ombre Du Temps
[+] Отчёт auCDtect Task ManagerКод:
----------------------- DON'T MODIFY THIS FILE ----------------------- PERFORMER: auCDtect Task Manager, ver. 1.6.0 RC1 build 1.6.0.1 Copyright (c) 2008-2010 y-soft. All rights reserved http://y-soft.org ANALYZER: auCDtect: CD records authenticity detector, version 0.8.2 Copyright (c) 2004 Oleg Berngardt. All rights reserved. Copyright (c) 2004 Alexander Djourik. All rights reserved. FILE: 10 - A L'ombre Du Temps.flac Size: 26349619 Hash: FEFF01AA6C3D9024606F1AF6A0E8E435 Accuracy: -m40 Conclusion: CDDA 100% Signature: 44B757B925FC00581BB68DB9CF1B33DA00D7FEA4 FILE: 09 - You Found the Best in Me.flac Size: 36332849 Hash: FED441D07C27EFA447314319A9664380 Accuracy: -m40 Conclusion: CDDA 100% Signature: 448A6849E88C7517C0E0AA4838AA0CF0AB42E771 FILE: 08 - The Lost Child.flac Size: 40231887 Hash: F5901CB5C881EB0BF251CDA6AE948AD5 Accuracy: -m40 Conclusion: CDDA 100% Signature: 5D1047DC058609F45D9437C374F38A5B2BD6450D FILE: 07 - Words of Evil.flac Size: 28402309 Hash: 4FFD2289D43243DB49F2896EB2054199 Accuracy: -m40 Conclusion: CDDA 100% Signature: 42593DD678E879889E956C6F841BFEBB2699EF95 FILE: 06 - Tribulation Nation.flac Size: 37544862 Hash: 763D7B3194101C7F0A0A420B75B4B5DA Accuracy: -m40 Conclusion: CDDA 100% Signature: 389FC846313F5D7D51B7137D9100FF469CA49117 FILE: 05 - Vampires.flac Size: 36194031 Hash: 4F2138FFCC89915A218F02DCD0DBEE4C Accuracy: -m40 Conclusion: CDDA 99% Signature: 066828CD980F31366191294C7C09E93260C0A7B5 FILE: 04 - Die Baby Die.flac Size: 33475926 Hash: 55DD0DBD1A40D5AED6A4E1003D99C0F1 Accuracy: -m40 Conclusion: CDDA 100% Signature: FEEAE81212891143A5E667249023558146A232C2 FILE: 03 - Skeleton Blues.flac Size: 34887063 Hash: EC845A35DF74EA1D19723B388AFAB419 Accuracy: -m40 Conclusion: CDDA 100% Signature: 9B63DCDB231FBC6DF0F42987EB14A4F9556D78B4 FILE: 02 - Into the Wormhole.flac Size: 32715638 Hash: 65D864549187E9A7E2067BA2B4849D42 Accuracy: -m40 Conclusion: CDDA 99% Signature: AC67B4D17D2690B810DE6738D6D1F60280D6DC09 FILE: 01 - Rough Times.flac Size: 29230569 Hash: 512B7578D4CC9D4BF974102A3CD18E4C Accuracy: -m40 Conclusion: CDDA 99% Signature: D7D2B7A690145BE4915F8D9C5FF2DFA8C2E1F7AD
[+] DR:Код:
foobar2000 2.1.5 / Замер динамического диапазона (DR) 1.1.1 Дата отчёта: 2024-06-30 13:57:46 -------------------------------------------------------------------------------- Анализ: Kadavar / Rough Times -------------------------------------------------------------------------------- DR Пики RMS Продолжительность трека -------------------------------------------------------------------------------- DR5 0.00 дБ -5.78 дБ 3:38 01-Rough Times DR5 0.00 дБ -5.62 дБ 4:18 02-Into the Wormhole DR6 0.00 дБ -6.52 дБ 4:24 03-Skeleton Blues DR5 0.00 дБ -5.61 дБ 4:18 04-Die Baby Die DR4 0.00 дБ -5.12 дБ 4:49 05-Vampires DR4 0.00 дБ -5.74 дБ 5:04 06-Tribulation Nation DR5 0.00 дБ -5.41 дБ 3:37 07-Words of Evil DR6 0.00 дБ -7.49 дБ 5:52 08-The Lost Child DR3 0.00 дБ -3.94 дБ 4:58 09-You Found the Best in Me DR5 0.00 дБ -6.65 дБ 3:57 10-A L'ombre Du Temps -------------------------------------------------------------------------------- Количество треков: 10 Реальные значения DR: DR5 Частота: 44100 Гц Каналов: 2 Разрядность: 16 Битрейт: 885 кбит/с Кодек: FLAC ================================================================================
[+] MiКод:
Format : FLAC Format/Info : Free Lossless Audio Codec File size : 27.9 MiB Duration : 3 min 38 s Overall bit rate mode : Variable Overall bit rate : 1 072 kb/s Album : Rough Times Album/Performer : Kadavar Part : 1 Part/Total : 1 Track name : Rough Times Track name/Position : 1 Track name/Total : 10 Performer : Kadavar Composer : Simon BOUTELOUP, Christoph Bartelt & Christoph Lindemann Producer : Nuclear Blast Label : Nuclear Blast Genre : Acid Rock, Psychedelic Rock, Hard Rock Recorded date : 2017-09-29 ISRC : DED831700769 Copyright : 2017 Nuclear Blast 2017 Nuclear Blast Cover : Yes Cover type : Cover (front) Cover MIME : image/jpeg Comment : https://www.qobuz.com/gb-en/album/rough-times-kadavar/jcmiauffibtqc INVOLVEDPEOPLE : Simon BOUTELOUP, Composer - Kadavar, MainArtist - Christoph Bartelt, Composer, Lyricist - Christoph Lindemann, Composer, Lyricist ITUNESADVISORY : 0 MEDIATYPE : album UPC : 0727361400866 URL : https://www.qobuz.com/fr-fr/album/rough-times-kadavar/jcmiauffibtqc Audio Format : FLAC Format/Info : Free Lossless Audio Codec Duration : 3 min 38 s Bit rate mode : Variable Bit rate : 1 069 kb/s Channel(s) : 2 channels Channel layout : L R Sampling rate : 44.1 kHz Bit depth : 16 bits Compression mode : Lossless Stream size : 27.8 MiB (100%) MD5 of the unencoded content : 00000000000000000000000000000000 General Complete name : C:Deemix MusicKadavar (24bit-44.1kHz)Kadavar - 2017 - Rough Times (16bit-44.1kHz)�2 - Into the Wormhole.flac Format : FLAC Format/Info : Free Lossless Audio Codec File size : 31.2 MiB Duration : 4 min 17 s Overall bit rate mode : Variable Overall bit rate : 1 016 kb/s Album : Rough Times Album/Performer : Kadavar Part : 1 Part/Total : 1 Track name : Into the Wormhole Track name/Position : 2 Track name/Total : 10 Performer : Kadavar Composer : Simon BOUTELOUP, Christoph Bartelt & Christoph Lindemann Producer : Nuclear Blast Label : Nuclear Blast Genre : Acid Rock, Psychedelic Rock, Hard Rock Recorded date : 2017-09-29 ISRC : DED831700770 Copyright : 2017 Nuclear Blast 2017 Nuclear Blast Cover : Yes Cover type : Cover (front) Cover MIME : image/jpeg Comment : 2017 Nuclear Blast INVOLVEDPEOPLE : Simon BOUTELOUP, Composer - Kadavar, MainArtist - Christoph Bartelt, Composer, Lyricist - Christoph Lindemann, Composer, Lyricist ITUNESADVISORY : 0 MEDIATYPE : album UPC : 0727361400866 URL : https://www.qobuz.com/fr-fr/album/rough-times-kadavar/jcmiauffibtqc Audio Format : FLAC Format/Info : Free Lossless Audio Codec Duration : 4 min 17 s Bit rate mode : Variable Bit rate : 1 014 kb/s Channel(s) : 2 channels Channel layout : L R Sampling rate : 44.1 kHz Bit depth : 16 bits Compression mode : Lossless Stream size : 31.1 MiB (100%) MD5 of the unencoded content : 00000000000000000000000000000000 General Complete name : C:Deemix MusicKadavar (24bit-44.1kHz)Kadavar - 2017 - Rough Times (16bit-44.1kHz)�3 - Skeleton Blues.flac Format : FLAC Format/Info : Free Lossless Audio Codec File size : 33.3 MiB Duration : 4 min 24 s Overall bit rate mode : Variable Overall bit rate : 1 057 kb/s Album : Rough Times Album/Performer : Kadavar Part : 1 Part/Total : 1 Track name : Skeleton Blues Track name/Position : 3 Track name/Total : 10 Performer : Kadavar Composer : Simon BOUTELOUP, Christoph Bartelt & Christoph Lindemann Producer : Nuclear Blast Label : Nuclear Blast Genre : Acid Rock, Psychedelic Rock, Hard Rock Recorded date : 2017-09-29 ISRC : DED831700771 Copyright : 2017 Nuclear Blast 2017 Nuclear Blast Cover : Yes Cover type : Cover (front) Cover MIME : image/jpeg INVOLVEDPEOPLE : Simon BOUTELOUP, Composer - Kadavar, MainArtist - Christoph Bartelt, Composer, Lyricist - Christoph Lindemann, Composer, Lyricist ITUNESADVISORY : 0 MEDIATYPE : album UPC : 0727361400866 URL : https://www.qobuz.com/fr-fr/album/rough-times-kadavar/jcmiauffibtqc Audio Format : FLAC Format/Info : Free Lossless Audio Codec Duration : 4 min 24 s Bit rate mode : Variable Bit rate : 1 054 kb/s Channel(s) : 2 channels Channel layout : L R Sampling rate : 44.1 kHz Bit depth : 16 bits Compression mode : Lossless Stream size : 33.2 MiB (100%) MD5 of the unencoded content : 00000000000000000000000000000000 General Complete name : C:Deemix MusicKadavar (24bit-44.1kHz)Kadavar - 2017 - Rough Times (16bit-44.1kHz)�4 - Die Baby Die.flac Format : FLAC Format/Info : Free Lossless Audio Codec File size : 31.9 MiB Duration : 4 min 18 s Overall bit rate mode : Variable Overall bit rate : 1 038 kb/s Album : Rough Times Album/Performer : Kadavar Part : 1 Part/Total : 1 Track name : Die Baby Die Track name/Position : 4 Track name/Total : 10 Performer : Kadavar Composer : Simon BOUTELOUP, Christoph Bartelt & Christoph Lindemann Producer : Nuclear Blast Label : Nuclear Blast Genre : Acid Rock, Psychedelic Rock, Hard Rock Recorded date : 2017-09-29 ISRC : DED831700772 Copyright : 2017 Nuclear Blast 2017 Nuclear Blast Cover : Yes Cover type : Cover (front) Cover MIME : image/jpeg INVOLVEDPEOPLE : Simon BOUTELOUP, Composer - Kadavar, MainArtist - Christoph Bartelt, Composer, Lyricist - Christoph Lindemann, Composer, Lyricist ITUNESADVISORY : 0 MEDIATYPE : album UPC : 0727361400866 URL : https://www.qobuz.com/fr-fr/album/rough-times-kadavar/jcmiauffibtqc Audio Format : FLAC Format/Info : Free Lossless Audio Codec Duration : 4 min 18 s Bit rate mode : Variable Bit rate : 1 035 kb/s Channel(s) : 2 channels Channel layout : L R Sampling rate : 44.1 kHz Bit depth : 16 bits Compression mode : Lossless Stream size : 31.8 MiB (100%) MD5 of the unencoded content : 00000000000000000000000000000000 General Complete name : C:Deemix MusicKadavar (24bit-44.1kHz)Kadavar - 2017 - Rough Times (16bit-44.1kHz)�5 - Vampires.flac Format : FLAC Format/Info : Free Lossless Audio Codec File size : 34.5 MiB Duration : 4 min 48 s Overall bit rate mode : Variable Overall bit rate : 1 003 kb/s Album : Rough Times Album/Performer : Kadavar Part : 1 Part/Total : 1 Track name : Vampires Track name/Position : 5 Track name/Total : 10 Performer : Kadavar Composer : Simon BOUTELOUP, Christoph Bartelt & Christoph Lindemann Producer : Nuclear Blast Label : Nuclear Blast Genre : Acid Rock, Psychedelic Rock, Hard Rock Recorded date : 2017-09-29 ISRC : DED831700773 Copyright : 2017 Nuclear Blast 2017 Nuclear Blast Cover : Yes Cover type : Cover (front) Cover MIME : image/jpeg INVOLVEDPEOPLE : Simon BOUTELOUP, Composer - Kadavar, MainArtist - Christoph Bartelt, Composer, Lyricist - Christoph Lindemann, Composer, Lyricist ITUNESADVISORY : 0 MEDIATYPE : album UPC : 0727361400866 URL : https://www.qobuz.com/fr-fr/album/rough-times-kadavar/jcmiauffibtqc Audio Format : FLAC Format/Info : Free Lossless Audio Codec Duration : 4 min 48 s Bit rate mode : Variable Bit rate : 1 001 kb/s Channel(s) : 2 channels Channel layout : L R Sampling rate : 44.1 kHz Bit depth : 16 bits Compression mode : Lossless Stream size : 34.4 MiB (100%) MD5 of the unencoded content : 00000000000000000000000000000000 General Complete name : C:Deemix MusicKadavar (24bit-44.1kHz)Kadavar - 2017 - Rough Times (16bit-44.1kHz)�6 - Tribulation Nation.flac Format : FLAC Format/Info : Free Lossless Audio Codec File size : 35.8 MiB Duration : 5 min 4 s Overall bit rate mode : Variable Overall bit rate : 988 kb/s Album : Rough Times Album/Performer : Kadavar Part : 1 Part/Total : 1 Track name : Tribulation Nation Track name/Position : 6 Track name/Total : 10 Performer : Kadavar Composer : Simon BOUTELOUP, Christoph Bartelt & Christoph Lindemann Producer : Nuclear Blast Label : Nuclear Blast Genre : Acid Rock, Psychedelic Rock, Hard Rock Recorded date : 2017-09-29 ISRC : DED831700774 Copyright : 2017 Nuclear Blast 2017 Nuclear Blast Cover : Yes Cover type : Cover (front) Cover MIME : image/jpeg INVOLVEDPEOPLE : Simon BOUTELOUP, Composer - Kadavar, MainArtist - Christoph Bartelt, Composer, Lyricist - Christoph Lindemann, Composer, Lyricist ITUNESADVISORY : 0 MEDIATYPE : album UPC : 0727361400866 URL : https://www.qobuz.com/fr-fr/album/rough-times-kadavar/jcmiauffibtqc Audio Format : FLAC Format/Info : Free Lossless Audio Codec Duration : 5 min 4 s Bit rate mode : Variable Bit rate : 985 kb/s Channel(s) : 2 channels Channel layout : L R Sampling rate : 44.1 kHz Bit depth : 16 bits Compression mode : Lossless Stream size : 35.7 MiB (100%) MD5 of the unencoded content : 00000000000000000000000000000000 General Complete name : C:Deemix MusicKadavar (24bit-44.1kHz)Kadavar - 2017 - Rough Times (16bit-44.1kHz)�7 - Words of Evil.flac Format : FLAC Format/Info : Free Lossless Audio Codec File size : 27.1 MiB Duration : 3 min 37 s Overall bit rate mode : Variable Overall bit rate : 1 047 kb/s Album : Rough Times Album/Performer : Kadavar Part : 1 Part/Total : 1 Track name : Words of Evil Track name/Position : 7 Track name/Total : 10 Performer : Kadavar Composer : Simon BOUTELOUP, Christoph Bartelt & Christoph Lindemann Producer : Nuclear Blast Label : Nuclear Blast Genre : Acid Rock, Psychedelic Rock, Hard Rock Recorded date : 2017-09-29 ISRC : DED831700775 Copyright : 2017 Nuclear Blast 2017 Nuclear Blast Cover : Yes Cover type : Cover (front) Cover MIME : image/jpeg INVOLVEDPEOPLE : Simon BOUTELOUP, Composer - Kadavar, MainArtist - Christoph Bartelt, Composer, Lyricist - Christoph Lindemann, Composer, Lyricist ITUNESADVISORY : 0 MEDIATYPE : album UPC : 0727361400866 URL : https://www.qobuz.com/fr-fr/album/rough-times-kadavar/jcmiauffibtqc Audio Format : FLAC Format/Info : Free Lossless Audio Codec Duration : 3 min 37 s Bit rate mode : Variable Bit rate : 1 044 kb/s Channel(s) : 2 channels Channel layout : L R Sampling rate : 44.1 kHz Bit depth : 16 bits Compression mode : Lossless Stream size : 27.0 MiB (100%) MD5 of the unencoded content : 00000000000000000000000000000000 General Complete name : C:Deemix MusicKadavar (24bit-44.1kHz)Kadavar - 2017 - Rough Times (16bit-44.1kHz)�8 - The Lost Child.flac Format : FLAC Format/Info : Free Lossless Audio Codec File size : 38.4 MiB Duration : 5 min 52 s Overall bit rate mode : Variable Overall bit rate : 914 kb/s Album : Rough Times Album/Performer : Kadavar Part : 1 Part/Total : 1 Track name : The Lost Child Track name/Position : 8 Track name/Total : 10 Performer : Kadavar Composer : Simon BOUTELOUP, Christoph Bartelt & Christoph Lindemann Producer : Nuclear Blast Label : Nuclear Blast Genre : Acid Rock, Psychedelic Rock, Hard Rock Recorded date : 2017-09-29 ISRC : DED831700776 Copyright : 2017 Nuclear Blast 2017 Nuclear Blast Cover : Yes Cover type : Cover (front) Cover MIME : image/jpeg INVOLVEDPEOPLE : Simon BOUTELOUP, Composer - Kadavar, MainArtist - Christoph Bartelt, Composer, Lyricist - Christoph Lindemann, Composer, Lyricist ITUNESADVISORY : 0 MEDIATYPE : album UPC : 0727361400866 URL : https://www.qobuz.com/fr-fr/album/rough-times-kadavar/jcmiauffibtqc Audio Format : FLAC Format/Info : Free Lossless Audio Codec Duration : 5 min 52 s Bit rate mode : Variable Bit rate : 912 kb/s Channel(s) : 2 channels Channel layout : L R Sampling rate : 44.1 kHz Bit depth : 16 bits Compression mode : Lossless Stream size : 38.3 MiB (100%) MD5 of the unencoded content : 00000000000000000000000000000000 General Complete name : C:Deemix MusicKadavar (24bit-44.1kHz)Kadavar - 2017 - Rough Times (16bit-44.1kHz)�9 - You Found the Best in Me.flac Format : FLAC Format/Info : Free Lossless Audio Codec File size : 34.6 MiB Duration : 4 min 58 s Overall bit rate mode : Variable Overall bit rate : 975 kb/s Album : Rough Times Album/Performer : Kadavar Part : 1 Part/Total : 1 Track name : You Found the Best in Me Track name/Position : 9 Track name/Total : 10 Performer : Kadavar Composer : Simon BOUTELOUP, Christoph Bartelt & Christoph Lindemann Producer : Nuclear Blast Label : Nuclear Blast Genre : Acid Rock, Psychedelic Rock, Hard Rock Recorded date : 2017-09-29 ISRC : DED831700777 Copyright : 2017 Nuclear Blast 2017 Nuclear Blast Cover : Yes Cover type : Cover (front) Cover MIME : image/jpeg INVOLVEDPEOPLE : Simon BOUTELOUP, Composer - Kadavar, MainArtist - Christoph Bartelt, Composer, Lyricist - Christoph Lindemann, Composer, Lyricist ITUNESADVISORY : 0 MEDIATYPE : album UPC : 0727361400866 URL : https://www.qobuz.com/fr-fr/album/rough-times-kadavar/jcmiauffibtqc Audio Format : FLAC Format/Info : Free Lossless Audio Codec Duration : 4 min 58 s Bit rate mode : Variable Bit rate : 973 kb/s Channel(s) : 2 channels Channel layout : L R Sampling rate : 44.1 kHz Bit depth : 16 bits Compression mode : Lossless Stream size : 34.6 MiB (100%) MD5 of the unencoded content : 00000000000000000000000000000000 General Complete name : C:Deemix MusicKadavar (24bit-44.1kHz)Kadavar - 2017 - Rough Times (16bit-44.1kHz)10 - A L'ombre Du Temps.flac Format : FLAC Format/Info : Free Lossless Audio Codec File size : 25.1 MiB Duration : 3 min 57 s Overall bit rate mode : Variable Overall bit rate : 888 kb/s Album : Rough Times Album/Performer : Kadavar Part : 1 Part/Total : 1 Track name : A L'ombre Du Temps Track name/Position : 10 Track name/Total : 10 Performer : Kadavar Composer : Simon BOUTELOUP, Christoph Bartelt & Christoph Lindemann Producer : Nuclear Blast Label : Nuclear Blast Genre : Acid Rock, Psychedelic Rock, Hard Rock Recorded date : 2017-09-29 ISRC : DED831700778 Copyright : 2017 Nuclear Blast 2017 Nuclear Blast Cover : Yes Cover type : Cover (front) Cover MIME : image/jpeg INVOLVEDPEOPLE : Simon BOUTELOUP, Composer - Kadavar, MainArtist - Christoph Bartelt, Composer, Lyricist - Christoph Lindemann, Composer, Lyricist ITUNESADVISORY : 0 MEDIATYPE : album UPC : 0727361400866 URL : https://www.qobuz.com/fr-fr/album/rough-times-kadavar/jcmiauffibtqc Audio Format : FLAC Format/Info : Free Lossless Audio Codec Duration : 3 min 57 s Bit rate mode : Variable Bit rate : 885 kb/s Channel(s) : 2 channels Channel layout : L R Sampling rate : 44.1 kHz Bit depth : 16 bits Compression mode : Lossless Stream size : 25.1 MiB (100%) MD5 of the unencoded content : 00000000000000000000000000000000 General Complete name : C:Deemix MusicKadavar (24bit-44.1kHz)Kadavar - 2017 - Rough Times (16bit-44.1kHz)Cover.jpg Format : JPEG File size : 1.77 MiB Image Format : JPEG Width : 1 440 pixels Height : 1 440 pixels Color space : YUV Chroma subsampling : 4:2:0 Bit depth : 8 bits Compression mode : Lossy Stream size : 1.77 MiB (100%) General Complete name : C:Deemix MusicKadavar (24bit-44.1kHz)Kadavar - 2017 - Rough Times (16bit-44.1kHz)Digital Booklet.pdf Format : PDF Format version : 1.5 File size : 2.06 MiB Text Format : PDF General Complete name : C:Deemix MusicKadavar (24bit-44.1kHz)Kadavar - 2017 - Rough Times (16bit-44.1kHz)Folder.auCDtect.txt File size : 4.40 KiB General Complete name : C:Deemix MusicKadavar (24bit-44.1kHz)Kadavar - 2017 - Rough Times (16bit-44.1kHz)foo_dr.txt File size : 1.51 KiB
[+] Дополнительная информация: Berlin, Germany https://kadavarberlin.bandcamp.com/ https://www.discogs.com/ru/artist/2515362-Kadavar

Всего файлов в раздаче: 42 
Kadavar - 2011 - Kadavar (The First Album Anniversary Edition 2024) FLAC (24bit-44.1kHz)\01 - All Our Thoughts.flac56.61 MB
Kadavar - 2011 - Kadavar (The First Album Anniversary Edition 2024) FLAC (24bit-44.1kHz)\02 - Black Sun.flac76.19 MB
Kadavar - 2011 - Kadavar (The First Album Anniversary Edition 2024) FLAC (24bit-44.1kHz)\03 - Forgotten Past.flac70.43 MB
Kadavar - 2011 - Kadavar (The First Album Anniversary Edition 2024) FLAC (24bit-44.1kHz)\04 - Goddess of Dawn.flac53.32 MB
Kadavar - 2011 - Kadavar (The First Album Anniversary Edition 2024) FLAC (24bit-44.1kHz)\05 - Creature of the Demon.flac60.59 MB
Kadavar - 2011 - Kadavar (The First Album Anniversary Edition 2024) FLAC (24bit-44.1kHz)\06 - Purple Sage.flac99.29 MB
Kadavar - 2011 - Kadavar (The First Album Anniversary Edition 2024) FLAC (24bit-44.1kHz)\07 - Forgotten Past (Demo).flac64.82 MB
Kadavar - 2011 - Kadavar (The First Album Anniversary Edition 2024) FLAC (24bit-44.1kHz)\08 - Black Sun (Demo).flac67.39 MB
Kadavar - 2011 - Kadavar (The First Album Anniversary Edition 2024) FLAC (24bit-44.1kHz)\09 - Living in Your Head.flac87.75 MB
Kadavar - 2011 - Kadavar (The First Album Anniversary Edition 2024) FLAC (24bit-44.1kHz)\10 - Tomorrow's Dead.flac65.61 MB
Показать все файлы

Комментарии


Зарегистрируйтесь чтобы добавить комментарий
Торрент клиент
byTorrent - программа для загрузки торрент-файлов.

Скачать byTorrent.exe (1,5 МБ)

Скачать byTorrent.zip (0,6 МБ)

Поддержи torrent.by
российских рублей
(300 российских рублей это 4$)

Обратная связь rss

End game ©