↑↓torrent.by
Поиск
Логин:  Регистрация
Пароль:

Дровосек / The Woodsman (2004) WEB-DL 1080p | P

download Скачать торрент-файл   magnet Магнитная ссылка Размер: 8.26 GB Добавлен: 2024-07-01 17:00
Пиры будут получены из сети DHT
Последний сидер был замечен 2024-07-01 20:08
Информация о фильме Название: Дровосек Оригинальное название: The Woodsman Год выхода: 2004 Жанр: Драма Режиссер: Николь Кэссел В ролях: Кевин Бейкон, Дэвид Алан Грир, Ив, Кира Седжвик, Бенджамин Брэтт, Карлос Леон, Майкл Шеннон, Кевин Райс, Ясин Бей, Ханна Пилкс О фильме: Заключенный выходит на свободу и пытается вернуться к нормальной жизни. Но окружающие сторонятся и боятся его. Родная сестра отвернулась, полицейский следит за каждым его шагом, новые коллеги на работе готовы убить его в любой момент. В это же время в городе появляется маньяк-убийца. Страна: США Студия: Dash Films, Lee Daniels Entertainment, The Woodsman LLC Продолжительность: 01:27:05 Перевод: Профессиональный многоголосый Файл Формат: MKV Качество: WEB-DL 1080p Видео: MPEG-4 AVC, 1920x1080 (16:9), 23.976 fps, 12.9 Mbps Аудио 1: Russian: АС3, 5.1 ch, 48.0 kHz, 16 bits, 448 kbps | MVO Аудио 2: English: E-AC3, 6 ch, 48.0 kHz, 16 bits, 224 kbps | Original Субтитры: Русские (Full), английские
[+] Скриншоты
[+] Инфо-файлGeneral Unique ID : 286017247291111615732692551038772217388 (0xD72CEB09B5D0806FB6783C5EDA28862C) Complete name : The.Woodsman.2004.1080p.AMZN.WEB-DL.mkv Format : Matroska Format version : Version 4 File size : 8.26 GiB Duration : 1 h 27 min Overall bit rate mode : Variable Overall bit rate : 13.6 Mb/s Frame rate : 23.976 FPS Encoded date : 2024-06-29 16:27:54 UTC Writing application : mkvmerge v38.0.0 ('The Silent Type') 64-bit Writing library : libebml v1.3.9 + libmatroska v1.5.2 Video ID : 1 Format : AVC Format/Info : Advanced Video Codec Format profile : High@L4 Format settings : CABAC / 4 Ref Frames Format settings, CABAC : Yes Format settings, Reference frames : 4 frames Codec ID : V_MPEG4/ISO/AVC Duration : 1 h 27 min Bit rate mode : Variable Bit rate : 12.9 Mb/s Maximum bit rate : 15.0 Mb/s Width : 1 920 pixels Height : 1 080 pixels Display aspect ratio : 16:9 Frame rate mode : Constant Frame rate : 23.976 (24000/1001) FPS Color space : YUV Chroma subsampling : 4:2:0 Bit depth : 8 bits Scan type : Progressive Bits/(Pixel*Frame) : 0.260 Stream size : 7.85 GiB (95%) Default : Yes Forced : No Color range : Limited Color primaries : BT.709 Transfer characteristics : BT.709 Matrix coefficients : BT.709 Audio #1 ID : 2 Format : AC-3 Format/Info : Audio Coding 3 Commercial name : Dolby Digital Codec ID : A_AC3 Duration : 1 h 26 min Bit rate mode : Constant Bit rate : 448 kb/s Channel(s) : 6 channels Channel layout : L R C LFE Ls Rs Sampling rate : 48.0 kHz Frame rate : 31.250 FPS (1536 SPF) Compression mode : Lossy Stream size : 278 MiB (3%) Language : Russian Service kind : Complete Main Default : Yes Forced : No Audio #2 ID : 3 Format : E-AC-3 Format/Info : Enhanced AC-3 Commercial name : Dolby Digital Plus Codec ID : A_EAC3 Duration : 1 h 27 min Bit rate mode : Constant Bit rate : 224 kb/s Channel(s) : 2 channels Channel layout : L R Sampling rate : 48.0 kHz Frame rate : 31.250 FPS (1536 SPF) Compression mode : Lossy Stream size : 140 MiB (2%) Language : English Service kind : Complete Main Default : No Forced : No Text #1 ID : 4 Format : UTF-8 Codec ID : S_TEXT/UTF8 Codec ID/Info : UTF-8 Plain Text Duration : 1 h 22 min Bit rate : 50 b/s Frame rate : 0.115 FPS Count of elements : 567 Stream size : 30.5 KiB (0%) Language : Russian Default : No Forced : No Text #2 ID : 5 Format : UTF-8 Codec ID : S_TEXT/UTF8 Codec ID/Info : UTF-8 Plain Text Duration : 1 h 24 min Bit rate : 35 b/s Frame rate : 0.143 FPS Count of elements : 727 Stream size : 22.1 KiB (0%) Language : English Default : No Forced : No Text #3 ID : 6 Format : UTF-8 Codec ID : S_TEXT/UTF8 Codec ID/Info : UTF-8 Plain Text Duration : 1 h 24 min Bit rate : 39 b/s Frame rate : 0.158 FPS Count of elements : 803 Stream size : 24.3 KiB (0%) Title : SDH Language : English Default : No Forced : No

Всего файлов в раздаче: 1 
The.Woodsman.2004.1080p.AMZN.WEB-DL.mkv8.26 GB

Комментарии


Зарегистрируйтесь чтобы добавить комментарий
Торрент клиент
byTorrent - программа для загрузки торрент-файлов.

Скачать byTorrent.exe (1,5 МБ)

Скачать byTorrent.zip (0,6 МБ)

Поддержи torrent.by
российских рублей
(300 российских рублей это 4$)

Обратная связь rss

End game ©