↑↓torrent.by
Поиск
Логин:  Регистрация
Пароль:

Чистые [01x01-03 из 08] (2024) WEBRip 720p от ExKinoRay

download Скачать торрент-файл   magnet Магнитная ссылка Размер: 2.24 GB Добавлен: 2024-07-01 17:00
Пиры будут получены из сети DHT
Последний сидер был замечен 2024-07-02 22:36
Информация о фильме Название: Чистые Год выхода: 2024 Жанр: Триллер, драма Режиссер: Николай Хомерики В ролях: Фёдор Бондарчук, Виктория Исакова, Софья Синицына, Диана Милютина, Даниил Воробьёв, Никита Кологривый, Борис Каморзин, Евгений Харитонов, Риналь Мухаметов, Марк Эйдельштейн О фильме: Петербург, 1903 год. Мир роскоши и досуга для мужчин, мир страха и подчинения для женщин. Ксения и Стеша работают в подпольном доме терпимости под контролем благообразной и безжалостной дамы. Девушки продают мужчинам тело, чувства, флирт и иллюзию любви. Кажется, кроме красоты у них ничего нет. На самом же деле им доступна тайная сила — чистота души и желание свободы. И этой силой они смогут изменить все. Страна: Россия Студия: Всемирные Русские Студии Продолжительность: 3 x ~ 00:35:00 Язык: Русский Реклама: Отсутствует Файл Формат: MKV Качество: WEBRip 720p Видео: MPEG-4 AVC, ~ 2500 Кбит/с, 1280x640, 25 кадр/с Звук : AC3, 2 ch, 192 Кбит/с RUS Субтитры: Нет
[+] МИ General Unique ID : 4120702729393567983098122492065948629 (0x3199E549068B460D2955E83226D23D5) Complete name : G:Chistye.S01.2024.WEB-DLRip.720p.ExKinoRayChistye.S01.E01.2024.WEB-DLRip.720p.ExKinoRay.mkv Format : Matroska Format version : Version 4 File size : 689 MiB Duration : 35 min 44 s Overall bit rate : 2 694 kb/s Encoded date : UTC 2024-06-24 09:39:59 Writing application : mkvmerge v56.1.0 ('My Friend') 64-bit Writing library : libebml v1.4.2 + libmatroska v1.6.4 Video ID : 1 Format : AVC Format/Info : Advanced Video Codec Format profile : High@L4.1 Format settings : CABAC / 9 Ref Frames Format settings, CABAC : Yes Format settings, Reference frames : 9 frames Codec ID : V_MPEG4/ISO/AVC Duration : 35 min 44 s Bit rate : 2 500 kb/s Width : 1 280 pixels Height : 640 pixels Display aspect ratio : 2.000 Frame rate mode : Constant Frame rate : 25.000 FPS Color space : YUV Chroma subsampling : 4:2:0 Bit depth : 8 bits Scan type : Progressive Bits/(Pixel*Frame) : 0.122 Stream size : 639 MiB (93%) Writing library : x264 core 146 r2538 121396c Encoding settings : cabac=1 / ref=9 / deblock=1:-3:-3 / analyse=0x3:0x113 / me=umh / subme=11 / psy=1 / psy_rd=1.00:0.02 / mixed_ref=1 / me_range=32 / chroma_me=1 / trellis=2 / 8x8dct=1 / cqm=0 / deadzone=21,11 / fast_pskip=1 / chroma_qp_offset=-3 / threads=24 / lookahead_threads=10 / sliced_threads=0 / nr=0 / decimate=0 / interlaced=0 / bluray_compat=0 / constrained_intra=0 / bframes=10 / b_pyramid=2 / b_adapt=2 / b_bias=0 / direct=3 / weightb=1 / open_gop=0 / weightp=2 / keyint=250 / keyint_min=25 / scenecut=40 / intra_refresh=0 / rc_lookahead=60 / rc=2pass / mbtree=1 / bitrate=2500 / ratetol=1.0 / qcomp=0.60 / qpmin=0 / qpmax=69 / qpstep=4 / cplxblur=20.0 / qblur=0.5 / vbv_maxrate=14000 / vbv_bufsize=14000 / nal_hrd=none / filler=0 / ip_ratio=1.40 / aq=3:1.40 Language : Russian Default : Yes Forced : No Color range : Limited Color primaries : BT.709 Transfer characteristics : BT.709 Matrix coefficients : BT.709 Audio ID : 2 Format : AC-3 Format/Info : Audio Coding 3 Commercial name : Dolby Digital Codec ID : A_AC3 Duration : 35 min 44 s Bit rate mode : Constant Bit rate : 192 kb/s Channel(s) : 2 channels Channel layout : L R Sampling rate : 48.0 kHz Frame rate : 31.250 FPS (1536 SPF) Compression mode : Lossy Stream size : 49.1 MiB (7%) Language : Russian Service kind : Complete Main Default : Yes Forced : No
[+] Скриншоты
Релиз от:

Всего файлов в раздаче: 3 
Chistye.S01.E01.2024.WEB-DLRip.720p.ExKinoRay.mkv688.70 MB
Chistye.S01.E02.2024.WEB-DLRip.720p.ExKinoRay.mkv828.56 MB
Chistye.S01.E03.2024.WEB-DLRip.720p.ExKinoRay.mkv773.20 MB

Похожие раздачи по запросу - Чистые
Вчера magnet Чистые [01-06 из 08] (2024) WEBRip от Files-x 3.57 GB ↑ 0 ↓ 0
2024-07-19 magnet Чистые [01x01-06 из 08] (2024) WEBRip 720p от ExKinoRay 5.18 GB ↑ 0 ↓ 0
2024-07-18 magnet Чистые / Серии: 1-6 из 8 [2024, триллер, драма, WEBRip-AVC] от Aleksan55 3.56 GB ↑ 0 ↓ 0
2024-07-18 magnet Чистые [01x01-06 из 08] (2024) WEBRip 1080p от ExKinoRay 7.76 GB ↑ 0 ↓ 0
2024-07-14 magnet Чистые [01x01-05 из 08] (2024) WEBRip 720p от ExKinoRay 4.24 GB ↑ 0 ↓ 0
2024-07-14 magnet Чистые [01-05 из 08] (2024) WEBRip от Files-x 2.93 GB ↑ 0 ↓ 0
2024-07-13 magnet Чистые [01x01-05 из 08] (2024) WEBRip 1080p от ExKinoRay 6.35 GB ↑ 0 ↓ 0

Комментарии


Зарегистрируйтесь чтобы добавить комментарий
Торрент клиент
byTorrent - программа для загрузки торрент-файлов.

Скачать byTorrent.exe (1,5 МБ)

Скачать byTorrent.zip (0,6 МБ)

Поддержи torrent.by
российских рублей
(300 российских рублей это 4$)

Обратная связь rss

End game ©