↑↓torrent.by
Поиск
Логин:  Регистрация
Пароль:

Предчувствие / La bête / The Beast (2023) BDRip 720p от DoMiNo & селезень | P | HDRezka Studio

download Скачать торрент-файл   magnet Магнитная ссылка Размер: 5.32 GB Добавлен: 2024-07-01 17:00
Пиры будут получены из сети DHT
Последний сидер был замечен сегодня в 07:44
Информация о фильме Название: Предчувствие Оригинальное название: La bête / The Beast Год выпуска: 2023 Жанр: фантастика, триллер, драма, мелодрама Режиссер: Бертран Бонелло / Bertrand Bonello В ролях: Леа Сейду, Джордж Маккэй, Гуслаги Маланга, Даша Некрасова, Мартин Скали, Элина Ловенсон, Марта Хоскинс, Жюлия Фор, Кестер Лавлэйс, Фелисьен Пино О фильме: В будущем человечество нашло способ избавиться от ненужных эмоций. Решившись на очистку ДНК, Габриэль начинает путешествие по своим прошлым жизням, в каждой из которых встречает Луи. Она ощущает мгновенное взаимное притяжение, но ее преследует предчувствие, что произойдет нечто страшное. Выпущено: Франция, Канада, Les Films du Bélier, My New Picture, Arte France Cinéma Продолжительность: 02:25:58 Перевод: Профессиональный (многоголосый, закадровый) | HDRezka Studio Субтитры: Русские (Forced), Английские, Французские Файл Формат: Matroska Качество: BDRip 720p Исходник: The Beast 2024 REPACK 1080p BluRay REMUX AVC DTS-HD MA 5 1-TRiToN Видео: 1280x692 at 24.000 fps, x264@L4.1, ~4387 kbps Аудио 1: AC3, 2 ch, ~192 kbps - | Русский | Аудио 2: AC3, 6 ch, ~640 kbps - | Французский | Формат субтитров: softsub (SRT) ***Рип от: -=DoMiNo=-
[+] M/Ix264 : frame I:1201 Avg QP:12.98 size:118332 x264 : frame P:40909 Avg QP:15.27 size: 45915 x264 : frame B:168082 Avg QP:17.20 size: 16553 General Unique ID : 265925779752832311574460399022173945442 (0xC80F713566155B1B628FB662F2357E62) Complete name : G:The.Beast.2023.MVO.BDRip.720p.x264.seleZen.mkv Format : Matroska Format version : Version 4 File size : 5.32 GiB Duration : 2 h 25 min Overall bit rate : 5 221 kb/s Frame rate : 24.000 FPS Movie name : The.Beast.2023.MVO.BDRip.720p.x264.seleZen Encoded date : 2024-07-01 10:20:45 UTC Writing application : mkvmerge v85.0 ('Shame For You') 64-bit Writing library : libebml v1.4.5 + libmatroska v1.7.1 Cover : Yes Attachments : cover.jpg / small_cover.jpg Video ID : 1 Format : AVC Format/Info : Advanced Video Codec Format profile : High@L4.1 Format settings : CABAC / 9 Ref Frames Format settings, CABAC : Yes Format settings, Reference : 9 frames Codec ID : V_MPEG4/ISO/AVC Duration : 2 h 25 min Bit rate : 4 387 kb/s Width : 1 280 pixels Height : 692 pixels Display aspect ratio : 1.85:1 Frame rate mode : Constant Frame rate : 24.000 FPS Color space : YUV Chroma subsampling : 4:2:0 Bit depth : 8 bits Scan type : Progressive Bits/(Pixel*Frame) : 0.206 Stream size : 4.47 GiB (84%) Title : -=DoMiNo=- Writing library : x264 core 164 r3191 -DoMiNo Encoding settings : cabac=1 / ref=9 / deblock=1:-3:-2 / analyse=0x3:0x133 / me=umh / subme=10 / psy=1 / psy_rd=1.05:0.05 / mixed_ref=1 / me_range=32 / chroma_me=1 / trellis=2 / 8x8dct=1 / cqm=0 / deadzone=21,11 / fast_pskip=0 / chroma_qp_offset=-3 / threads=22 / lookahead_threads=5 / sliced_threads=0 / nr=0 / decimate=1 / interlaced=0 / bluray_compat=0 / constrained_intra=0 / bframes=10 / b_pyramid=2 / b_adapt=2 / b_bias=0 / direct=3 / weightb=1 / open_gop=0 / weightp=2 / keyint=240 / keyint_min=24 / scenecut=40 / intra_refresh=0 / rc_lookahead=60 / rc=crf / mbtree=0 / crf=17.8 / qcomp=0.60 / qpmin=0 / qpmax=69 / qpstep=4 / vbv_maxrate=50000 / vbv_bufsize=62500 / crf_max=0.0 / nal_hrd=none / filler=0 / ip_ratio=1.40 / pb_ratio=1.30 / aq=3:0.90 Language : English Default : Yes Forced : No Color range : Limited Color primaries : BT.709 Transfer characteristics : BT.709 Matrix coefficients : BT.709 Audio #1 ID : 2 Format : AC-3 Format/Info : Audio Coding 3 Commercial name : Dolby Digital Codec ID : A_AC3 Duration : 2 h 25 min Bit rate mode : Constant Bit rate : 192 kb/s Channel(s) : 2 channels Channel layout : L R Sampling rate : 48.0 kHz Frame rate : 31.250 FPS (1536 SPF) Compression mode : Lossy Stream size : 200 MiB (4%) Title : MVO -HDRezka Language : Russian Service kind : Complete Main Default : Yes Forced : No Dialog Normalization : -31 dB dialnorm_Average : -31 dB dialnorm_Minimum : -31 dB dialnorm_Maximum : -31 dB Audio #2 ID : 3 Format : AC-3 Format/Info : Audio Coding 3 Commercial name : Dolby Digital Codec ID : A_AC3 Duration : 2 h 25 min Bit rate mode : Constant Bit rate : 640 kb/s Channel(s) : 6 channels Channel layout : L R C LFE Ls Rs Sampling rate : 48.0 kHz Frame rate : 31.250 FPS (1536 SPF) Compression mode : Lossy Stream size : 668 MiB (12%) Title : Original Language : French Service kind : Complete Main Default : No Forced : No Dialog Normalization : -31 dB cmixlev : -4.5 dB surmixlev : -6 dB dialnorm_Average : -31 dB dialnorm_Minimum : -31 dB dialnorm_Maximum : -31 dB Text #1 ID : 4 Format : UTF-8 Codec ID : S_TEXT/UTF8 Codec ID/Info : UTF-8 Plain Text Duration : 1 h 3 min Bit rate : 1 b/s Frame rate : 0.003 FPS Count of elements : 10 Stream size : 699 Bytes (0%) Title : Forced Language : Russian Default : No Forced : No Text #2 ID : 5 Format : UTF-8 Codec ID : S_TEXT/UTF8 Codec ID/Info : UTF-8 Plain Text Duration : 2 h 24 min Bit rate : 38 b/s Frame rate : 0.191 FPS Count of elements : 1652 Stream size : 40.9 KiB (0%) Title : Full Language : English Default : No Forced : No Text #3 ID : 6 Format : UTF-8 Codec ID : S_TEXT/UTF8 Codec ID/Info : UTF-8 Plain Text Duration : 2 h 25 min Bit rate : 50 b/s Frame rate : 0.215 FPS Count of elements : 1873 Stream size : 54.1 KiB (0%) Title : Full Language : French Default : No Forced : No Text #4 ID : 7 Format : UTF-8 Codec ID : S_TEXT/UTF8 Codec ID/Info : UTF-8 Plain Text Duration : 2 h 16 min Bit rate : 22 b/s Frame rate : 0.099 FPS Count of elements : 812 Stream size : 22.7 KiB (0%) Title : Forced Language : French Default : No Forced : No Menu 00:00:00.000 : en:Chapter 01 00:15:41.208 : en:Chapter 02 00:25:11.042 : en:Chapter 03 00:34:58.875 : en:Chapter 04 00:46:25.500 : en:Chapter 05 00:56:40.833 : en:Chapter 06 01:12:26.500 : en:Chapter 07 01:24:46.625 : en:Chapter 08 01:37:17.792 : en:Chapter 09 01:51:29.833 : en:Chapter 10 02:00:03.208 : en:Chapter 11 02:15:39.542 : en:Chapter 12
Релиз: Присоединяйся к: Кликай на баннеры.

Всего файлов в раздаче: 1 
The.Beast.2023.MVO.BDRip.720p.x264.seleZen.mkv5.32 GB

Похожие раздачи по запросу - Предчувствие
Сегодня magnet Предчувствие / La bête / The Beast (2023) BDRip 1080p от Generalfilm | D 8.20 GB ↑ 0 ↓ 2
2024-07-15 magnet Предчувствие / La bête / The Beast (2023) BDRip от DoMiNo & селезень | D 1.46 GB ↑ 1 ↓ 1
2024-07-15 magnet Предчувствие / La bête / The Beast (2023) BDRip 720p от DoMiNo & селезень | D, P | CPI Films, HDRezka Studio 5.78 GB ↑ 9 ↓ 3
2024-07-15 magnet Предчувствие / La bête / The Beast (2023) BDRip 1080p | D, P 18.26 GB ↑ 0 ↓ 3
2024-07-13 magnet Предчувствие / La bête / The Beast (2023) WEB-DL 1080p | D | CPI Films 4.58 GB ↑ 1 ↓ 0
2024-07-01 magnet Предчувствие / La bête / The Beast (2023) BDRip от DoMiNo & селезень | P | HDRezka Studio 1.46 GB ↑ 0 ↓ 1
2024-07-01 magnet Предчувствие / La bête / The Beast (2023) BDRip 1080p от New-Team | P | HDRezka Studio 17.61 GB ↑ 0 ↓ 5

Комментарии


Зарегистрируйтесь чтобы добавить комментарий
Торрент клиент
byTorrent - программа для загрузки торрент-файлов.

Скачать byTorrent.exe (1,5 МБ)

Скачать byTorrent.zip (0,6 МБ)

Поддержи torrent.by
российских рублей
(300 российских рублей это 4$)

Обратная связь rss

End game ©