↑↓torrent.by
Поиск
Логин:  Регистрация
Пароль:

Нежить / In a Violent Nature (2024) WEB-DLRip от New-Team | P | HDRezka Studio

download Скачать торрент-файл   magnet Магнитная ссылка Размер: 1.46 GB Добавлен: 2024-07-01 17:00
Пиры будут получены из сети DHT
Последний сидер был замечен 2024-07-06 16:12
Нежить / In a Violent Nature Год выпуска: 2024 Выпущено: Канада / Low Sky Productions, Shudder, Zygote Pictures Жанр: ужасы Режиссер: Крис Нэш / Chris Nash В ролях: Райан Баррет, Андреа Павловиц, Камерон Лав, Рис Пресли, Лиам Леоне, Шарлотта Криган, Лиа Роуз Себастианис, Сэм Ролстон, Александр Оливер, Тимоти Пол О фильме: Группа отдыхавших на природе парней и девушек пробуждает к жизни беспощадное существо, заключенное в тело казненного много лет назад маньяка. Его нельзя убить, от него нельзя убежать, спрятаться или скрыться. Всех, кто встретит его на пути, ждет единственный смертельный исход. Как им справиться с неумолимым воплощением самого зла? Продолжительность: 01:33:53 Перевод: Профессиональный (многоголосый, закадровый) | HDRezka Studio Субтитры: Русские (forced), Раздача от: Автор релиза: JNS82. Формат: AVI Качество: WEB-DLRip Видео: 704x528 (4:3), 23.976 fps, XviD MPEG-4 ~ 1832 kbps avg, 0.206 bit/pixel, build 74 Аудио: 48 kHz, AC3 Dolby Digital, 3/2 (L,C,R,l,r) + LFE ch, ~ 192 kbps | RUS | Аудио: 48 kHz, AC3 Dolby Digital, 3/2 (L,C,R,l,r) + LFE ch, ~ 192 kbps | ENG |
[+] MediaInfoОбщее Полное имя : D:TorrentsIn.a.Violent.Nature.2024.WEB-DLRip_от New-TeamIn.a.Violent.Nature.2024.WEB-DLRip_от New-Team.avi Формат : AVI Формат/Информация : Audio Video Interleave Размер файла : 1,46 Гбайт Продолжительность : 1 ч. 33 м. Общий поток : 2 231 Кбит/сек Программа кодирования : VirtualDubMod 1.5.10.2 (build 2540/release) Библиотека кодирования : VirtualDubMod build 2540/release Видео Идентификатор : 0 Формат : MPEG-4 Visual Профиль формата : Advanced Simple@L5 Настройки формата : BVOP1 / Custom Matrix Параметр BVOP формата : 1 Параметр QPel формата : Нет Параметр GMC формата : Без точки перехода Параметр матрицы формата : Выборочная Идентификатор кодека : XVID Идентификатор кодека/Подсказка : XviD Продолжительность : 1 ч. 33 м. Битрейт : 1 832 Кбит/сек Ширина : 704 пикселя Высота : 528 пикселей Соотношение сторон : 4:3 Частота кадров : 23,976 (24000/1001) кадра/сек Цветовое пространство : YUV Субдискретизация насыщенности : 4:2:0 Битовая глубина : 8 бит Тип развёртки : Прогрессивная Метод сжатия : С потерями Бит/(Пиксели*Кадры) : 0.206 Размер потока : 1,20 Гбайт (82%) Библиотека кодирования : XviD 73 Аудио #1 Идентификатор : 1 Формат : AC-3 Формат/Информация : Audio Coding 3 Коммерческое название : Dolby Digital Идентификатор кодека : 2000 Продолжительность : 1 ч. 33 м. Вид битрейта : Постоянный Битрейт : 192 Кбит/сек Каналы : 2 канала Channel layout : L R Частота : 48,0 КГц Частота кадров : 31,250 кадров/сек (1536 SPF) Метод сжатия : С потерями Размер потока : 129 Мбайт (9%) Выравнивание : Разделение по промежуткам Продолжительность промежутка : 42 мс. (1,00 видеокадр) Время предзагрузки промежутка : 500 мс. Заголовок : HDRezka Studio Service kind : Complete Main Аудио #2 Идентификатор : 2 Формат : AC-3 Формат/Информация : Audio Coding 3 Коммерческое название : Dolby Digital Идентификатор кодека : 2000 Продолжительность : 1 ч. 33 м. Вид битрейта : Постоянный Битрейт : 192 Кбит/сек Каналы : 2 канала Channel layout : L R Частота : 48,0 КГц Частота кадров : 31,250 кадров/сек (1536 SPF) Метод сжатия : С потерями Размер потока : 129 Мбайт (9%) Выравнивание : Разделение по промежуткам Продолжительность промежутка : 42 мс. (1,00 видеокадр) Время предзагрузки промежутка : 500 мс. Service kind : Complete Main

Всего файлов в раздаче: 2 
In.a.Violent.Nature.2024.WEB-DLRip_от New-Team.avi1.46 GB
In.a.Violent.Nature.2024.WEB-DLRip_от New-Team_[rus].srt501.00 B

Похожие раздачи по запросу - Нежить
2024-07-03 magnet Нежить / In a Violent Nature (2024) WEB-DL-HEVC 2160p | 4K | SDR | P, L 10.39 GB ↑ 0 ↓ 1
2024-07-02 magnet Нежить / In a Violent Nature (2024) WEB-DL 720p от селезень | P | HDRezka Studio 2.94 GB ↑ 0 ↓ 0
2024-07-02 magnet Нежить / In a Violent Nature (2024) WEB-DLRip от DoMiNo & селезень | P | HDRezka Studio 1.37 GB ↑ 0 ↓ 0
2024-07-02 magnet Нежить / In a Violent Nature (2024) WEB-DLRip-AVC | P | HDRezka Studio 1.46 GB ↑ 14 ↓ 2
2024-07-01 magnet Нежить / In a Violent Nature (2024) WEB-DL 1080p от New-Team | P | HDRezka Studio 6.57 GB ↑ 0 ↓ 0
2024-06-29 magnet Нежить / In a Violent Nature (2024) WEB-DLRip-AVC | L 1.46 GB ↑ 4 ↓ 0
2024-06-29 magnet Нежить / In a Violent Nature (2024) WEB-DLRip-AVC | L 1.39 GB ↑ 19 ↓ 2

Комментарии


Зарегистрируйтесь чтобы добавить комментарий
Торрент клиент
byTorrent - программа для загрузки торрент-файлов.

Скачать byTorrent.exe (1,5 МБ)

Скачать byTorrent.zip (0,6 МБ)

Поддержи torrent.by
российских рублей
(300 российских рублей это 4$)

Обратная связь rss

End game ©