↑↓torrent.by
Поиск
Логин:  Регистрация
Пароль:

Смотрители / The Watchers (2024) WEB-DLRip от DoMiNo & селезень | P | HDRezka Studio

download Скачать торрент-файл   magnet Магнитная ссылка Размер: 1.37 GB Добавлен: 2024-07-01 17:00
Пиры будут получены из сети DHT
Последний сидер был замечен 2024-07-14 20:23
Информация о фильме Название: Смотрители Оригинальное название: The Watchers Год выпуска: 2024 Жанр: ужасы Режиссер: Ишана Шьямалан / Ishana Shyamalan В ролях: Дакота Фаннинг, Джорджина Кэмпбелл, Олуэн Фуэре, Оливер Финнегэн, Алистэр Браммер, Джон Линч ,Шиван Хьюлетт, Ханна Дарган, Эмили Дарган, Джоэль Фигероа О фильме: Женщина заблудилась в лесу в западной Ирландии. Она находит убежище, в котором живут еще трое незнакомцев, но каждую ночь за ними наблюдают загадочные существа. Выпущено: Ирландия, США / Blinding Edge Pictures, Bord Scannán na hÉireann / The Irish Film Board, Inimitable Pictures Продолжительность: 01:41:42 Перевод: Профессиональный (многоголосый, закадровый) | HDRezka Studio Субтитры: Русские (Forced - хардсаб) Файл Формат: AVI Качество: WEB-DLRip Видео: 704x384 at 23.976 fps, XviD 69, ~1729 kbps Аудио: AC3, 2 ch, ~192 kbps - | Русский | Формат субтитров: хардсаб ***Рип от: -=DoMiNo=-
[+] M/IGeneral Complete name : S:The.Watchers.2024.AMZN.WEB-DLRip.seleZen.avi Format : AVI Format/Info : Audio Video Interleave Format settings : BitmapInfoHeader / WaveFormatEx File size : 1.37 GiB Duration : 1 h 41 min Overall bit rate : 1 930 kb/s Frame rate : 23.976 FPS Movie name : The.Watchers.2024.AMZN.WEB-DLRip.seleZen Writing application : VirtualDubModRus 1.5.10.2 (build 2542/release) Writing library : VirtualDubMod build 2542/release Copyright : -=DoMiNo=- Video ID : 0 Format : MPEG-4 Visual Format profile : Advanced Simple@L5 Format settings : BVOP1 / Custom Matrix Format settings, BVOP : 1 Format settings, QPel : No Format settings, GMC : No warppoints Format settings, Matrix : Custom Codec ID : XVID Codec ID/Hint : XviD Duration : 1 h 41 min Bit rate : 1 729 kb/s Width : 704 pixels Height : 384 pixels Display aspect ratio : 1.85:1 Frame rate : 23.976 (24000/1001) FPS Color space : YUV Chroma subsampling : 4:2:0 Bit depth : 8 bits Scan type : Progressive Compression mode : Lossy Bits/(Pixel*Frame) : 0.267 Stream size : 1.23 GiB (90%) Writing library : XviD 69 Audio ID : 1 Format : AC-3 Format/Info : Audio Coding 3 Commercial name : Dolby Digital Codec ID : 2000 Duration : 1 h 41 min Bit rate mode : Constant Bit rate : 192 kb/s Channel(s) : 2 channels Channel layout : L R Sampling rate : 48.0 kHz Frame rate : 31.250 FPS (1536 SPF) Compression mode : Lossy Stream size : 140 MiB (10%) Alignment : Split across interleaves Interleave, duration : 42 ms (1.00 video frame) Interleave, preload duratio : 500 ms Service kind : Complete Main Dialog Normalization : -31 dB dialnorm_Average : -31 dB dialnorm_Minimum : -31 dB dialnorm_Maximum : -31 dB
Релиз: Присоединяйся к: Кликай на баннеры.

Всего файлов в раздаче: 1 
The.Watchers.2024.AMZN.WEB-DLRip.seleZen.avi1.37 GB

Похожие раздачи по запросу - Смотрители
2024-07-17 magnet Смотрители / The Watchers (2024) UHD WEB-DL-HEVC 2160p | 4K | HDR | D, P | Movie Dubbing, Red Head Sound, HDRezka Studio 18.48 GB ↑ 0 ↓ 2
2024-07-14 magnet Смотрители / The Watchers (2024) WEB-DL 720p от селезень | D, P | Movie Dubbing, HDrezka, Red Head Sound 2.66 GB ↑ 0 ↓ 1
2024-07-14 magnet Смотрители / The Watchers (2024) WEB-DLRip 1080p | D, P | Movie Dubbing, HDrezka, RHS 7.68 GB ↑ 0 ↓ 1
2024-07-04 magnet Смотрители / The Watchers (2024) WEB-DL 1080p | P | Red Head Sound 4.81 GB ↑ 0 ↓ 1
2024-07-03 magnet Смотрители / The Watchers (2024) WEB-DLRip-AVC | P | HDRezka Studio 1.50 GB ↑ 12 ↓ 0
2024-07-01 magnet Смотрители / The Watchers (2024) WEB-DL 720p от селезень | P | HDRezka Studio 2.11 GB ↑ 0 ↓ 0
2024-07-01 magnet Смотрители / The Watchers (2024) WEB-DLRip от AR-Team | P | HDRezka Studio 1.47 GB ↑ 0 ↓ 0

Комментарии


Зарегистрируйтесь чтобы добавить комментарий
Торрент клиент
byTorrent - программа для загрузки торрент-файлов.

Скачать byTorrent.exe (1,5 МБ)

Скачать byTorrent.zip (0,6 МБ)

Поддержи torrent.by
российских рублей
(300 российских рублей это 4$)

Обратная связь rss

End game ©