↑↓torrent.by
Поиск
Логин:  Регистрация
Пароль:

Смотрители / The Watchers (2024) WEB-DL 720p от селезень | P | HDRezka Studio

download Скачать торрент-файл   magnet Магнитная ссылка Размер: 2.11 GB Добавлен: 2024-07-01 17:00
Пиры будут получены из сети DHT
Последний сидер был замечен 2024-07-18 10:28
Информация о фильме Название: Смотрители Оригинальное название: The Watchers Год выпуска: 2024 Жанр: ужасы Режиссер: Ишана Шьямалан / Ishana Shyamalan В ролях: Дакота Фаннинг, Джорджина Кэмпбелл, Олуэн Фуэре, Оливер Финнегэн, Алистэр Браммер, Джон Линч ,Шиван Хьюлетт, Ханна Дарган, Эмили Дарган, Джоэль Фигероа О фильме: Женщина заблудилась в лесу в западной Ирландии. Она находит убежище, в котором живут еще трое незнакомцев, но каждую ночь за ними наблюдают загадочные существа. Выпущено: Ирландия, США / Blinding Edge Pictures, Bord Scannán na hÉireann / The Irish Film Board, Inimitable Pictures Продолжительность: 01:41:42 Перевод: Профессиональный (многоголосый, закадровый) | HDRezka Studio Субтитры: Русские (Forced, Full (AI)), английские (Full, SDH) Файл Формат: Matroska Качество: WEB-DL 720p | AMZN Видео: 1280@1272x688 at 23.976 fps, MPEG-4 AVC, ~2011 kbps Аудио 1: AC3, 2 ch, ~192 kbps - | Русский | Аудио 2: E-AC-3 JOC, 6 ch, ~768 kbps - | Английский | Формат субтитров: softsub (SRT)
[+] M/IGeneral Unique ID : 290073186249385384248338368624541390335 (0xDA3A10448F7F1624E478B61A06CD55FF) Complete name : U:The.Watchers.2024.AMZN.WEB-DL.720p.x264.seleZen.mkv Format : Matroska Format version : Version 4 File size : 2.11 GiB Duration : 1 h 41 min Overall bit rate : 2 974 kb/s Frame rate : 23.976 FPS Movie name : The.Watchers.2024.AMZN.WEB-DL.720p.x264.seleZen Encoded date : 2024-07-01 10:54:38 UTC Writing application : mkvmerge v85.0 ('Shame For You') 64-bit Writing library : libebml v1.4.5 + libmatroska v1.7.1 Cover : Yes Attachments : cover.jpg / small_cover.jpg Video ID : 1 Format : AVC Format/Info : Advanced Video Codec Format profile : High@L3.1 Format settings : CABAC / 4 Ref Frames Format settings, CABAC : Yes Format settings, Reference : 4 frames Codec ID : V_MPEG4/ISO/AVC Duration : 1 h 41 min Bit rate mode : Constant Bit rate : 2 011 kb/s Nominal bit rate : 4 000 kb/s Width : 1 280 pixels Height : 688 pixels Display aspect ratio : 1.85:1 Frame rate mode : Constant Frame rate : 23.976 (24000/1001) FPS Color space : YUV Chroma subsampling : 4:2:0 Bit depth : 8 bits Scan type : Progressive Bits/(Pixel*Frame) : 0.095 Stream size : 1.43 GiB (68%) Title : -=DoMiNo=- Language : English Default : Yes Forced : No Color range : Limited Color primaries : BT.709 Transfer characteristics : BT.709 Matrix coefficients : BT.709 Audio #1 ID : 2 Format : AC-3 Format/Info : Audio Coding 3 Commercial name : Dolby Digital Codec ID : A_AC3 Duration : 1 h 41 min Bit rate mode : Constant Bit rate : 192 kb/s Channel(s) : 2 channels Channel layout : L R Sampling rate : 48.0 kHz Frame rate : 31.250 FPS (1536 SPF) Compression mode : Lossy Stream size : 140 MiB (6%) Title : HDRezka Studio Language : Russian Service kind : Complete Main Default : Yes Forced : No Dialog Normalization : -31 dB dialnorm_Average : -31 dB dialnorm_Minimum : -31 dB dialnorm_Maximum : -31 dB Audio #2 ID : 3 Format : E-AC-3 JOC Format/Info : Enhanced AC-3 with Joint Object Coding Commercial name : Dolby Digital Plus with Dolby Atmos Codec ID : A_EAC3 Duration : 1 h 41 min Bit rate mode : Constant Bit rate : 768 kb/s Channel(s) : 6 channels Channel layout : L R C LFE Ls Rs Sampling rate : 48.0 kHz Frame rate : 31.250 FPS (1536 SPF) Compression mode : Lossy Stream size : 559 MiB (26%) Language : English (US) Service kind : Complete Main Default : No Forced : No Complexity index : 16 Number of dynamic objects : 15 Bed channel count : 1 channel Bed channel configuration : LFE Dialog Normalization : -30 dB compr : -0.28 dB dialnorm_Average : -30 dB dialnorm_Minimum : -30 dB dialnorm_Maximum : -30 dB Text #1 ID : 4 Format : UTF-8 Codec ID : S_TEXT/UTF8 Codec ID/Info : UTF-8 Plain Text Duration : 1 h 18 min Bit rate : 1 b/s Frame rate : 0.004 FPS Count of elements : 18 Stream size : 626 Bytes (0%) Title : Forced Language : Russian Default : No Forced : No Text #2 ID : 5 Format : UTF-8 Codec ID : S_TEXT/UTF8 Codec ID/Info : UTF-8 Plain Text Duration : 1 h 34 min Bit rate : 75 b/s Frame rate : 0.184 FPS Count of elements : 1040 Stream size : 51.9 KiB (0%) Title : Full Language : Russian Default : No Forced : No Text #3 ID : 6 Format : UTF-8 Codec ID : S_TEXT/UTF8 Codec ID/Info : UTF-8 Plain Text Duration : 1 h 34 min Bit rate : 44 b/s Frame rate : 0.184 FPS Count of elements : 1042 Stream size : 31.0 KiB (0%) Language : English (US) Default : No Forced : No Text #4 ID : 7 Format : UTF-8 Codec ID : S_TEXT/UTF8 Codec ID/Info : UTF-8 Plain Text Duration : 1 h 34 min Bit rate : 58 b/s Frame rate : 0.246 FPS Count of elements : 1392 Stream size : 40.2 KiB (0%) Title : SDH Language : English (US) Default : No Forced : No Menu 00:00:00.000 : en:Chapter 01 00:05:50.000 : en:Chapter 02 00:11:40.000 : en:Chapter 03 00:17:30.000 : en:Chapter 04 00:23:20.000 : en:Chapter 05 00:29:10.000 : en:Chapter 06 00:35:00.000 : en:Chapter 07 00:40:50.000 : en:Chapter 08 00:46:40.000 : en:Chapter 09 00:52:30.000 : en:Chapter 10 00:58:20.000 : en:Chapter 11 01:04:10.000 : en:Chapter 12 01:10:00.000 : en:Chapter 13 01:15:50.000 : en:Chapter 14 01:21:40.000 : en:Chapter 15 01:27:30.000 : en:Chapter 16 01:33:20.000 : en:Chapter 17 01:39:10.000 : en:Chapter 18
Релиз: Присоединяйся к: Кликай на баннеры.

Всего файлов в раздаче: 1 
The.Watchers.2024.AMZN.WEB-DL.720p.x264.seleZen.mkv2.11 GB

Похожие раздачи по запросу - Смотрители
2024-07-17 magnet Смотрители / The Watchers (2024) UHD WEB-DL-HEVC 2160p | 4K | HDR | D, P | Movie Dubbing, Red Head Sound, HDRezka Studio 18.48 GB ↑ 0 ↓ 7
2024-07-14 magnet Смотрители / The Watchers (2024) WEB-DL 720p от селезень | D, P | Movie Dubbing, HDrezka, Red Head Sound 2.66 GB ↑ 0 ↓ 2
2024-07-14 magnet Смотрители / The Watchers (2024) WEB-DLRip 1080p | D, P | Movie Dubbing, HDrezka, RHS 7.68 GB ↑ 0 ↓ 0
2024-07-04 magnet Смотрители / The Watchers (2024) WEB-DL 1080p | P | Red Head Sound 4.81 GB ↑ 0 ↓ 0
2024-07-03 magnet Смотрители / The Watchers (2024) WEB-DLRip-AVC | P | HDRezka Studio 1.50 GB ↑ 22 ↓ 1
2024-07-01 magnet Смотрители / The Watchers (2024) WEB-DLRip от DoMiNo & селезень | P | HDRezka Studio 1.37 GB ↑ 0 ↓ 0
2024-07-01 magnet Смотрители / The Watchers (2024) WEB-DLRip от AR-Team | P | HDRezka Studio 1.47 GB ↑ 0 ↓ 0

Комментарии


Зарегистрируйтесь чтобы добавить комментарий
Торрент клиент
byTorrent - программа для загрузки торрент-файлов.

Скачать byTorrent.exe (1,5 МБ)

Скачать byTorrent.zip (0,6 МБ)

Поддержи torrent.by
российских рублей
(300 российских рублей это 4$)

Обратная связь rss

End game ©