↑↓torrent.by
Поиск
Логин:  Регистрация
Пароль:

Бал сумасшедших / Captives (2023) WEB-DLRip от AR-Team | D

download Скачать торрент-файл   magnet Магнитная ссылка Размер: 1.46 GB Добавлен: temaxa 2024-07-01 18:56
Пиры будут получены из сети DHT
Последний сидер был замечен 2024-07-07 09:50
Бал сумасшедших / Captives (2023) WEB-DLRip
Производство: Франция / Prélude, Wild Bunch, Elle Driver Жанр: триллер, драма Режиссер: Арно де Пальер Актеры: Мелани Тьерри, Жозиан Баласко, Иоланда Моро, Марина Фоис, Кароль Буке, Мисс Минг, Доминик Фро, Агнес Бертон, Люси Чжан, Элина Ловенсон Описание: Раз в году в психиатрической больнице проводится популярное у всего Парижа мероприятие. Политики, деятели искусства и светские гости толпятся перед дверями этого заведения, жаждущие оказаться в красочной толпе «безумных женщин». Но в этот раз среди них Фанни, а «бал сумасшедших» для неё — единственный шанс найти и спасти свою мать. Возраст: 18+ (зрителям, достигшим 18 лет. запрещено для детей) Релиз от: AR-Team Продолжительность: 01:50:53 Качество видео: WEB-DLRip Перевод: Дублированный (CPI Films) Язык озвучки: Русский Субтитры: Русские (forced, hardsub) Видео: Xvid, 720x304, ~1494 Kbps Аудио: AC3, 6 ch, 384 Kbps - Русский
[+] MediaInfo:
General
Complete name                  : Captives.2023.WEB-DLRip.AR-Team.avi
Format                         : AVI
Format/Info                    : Audio Video Interleave
Format settings                : BitmapInfoHeader / WaveFormatEx
File size                      : 1.46 GiB
Duration                       : 1 h 50 min
Overall bit rate               : 1 888 kb/s
Frame rate                     : 24.000 FPS
Writing application            : VirtualDubModRus 1.5.10.2 (build 2542/release)
Writing library                : VirtualDubMod build 2542/release

Video
ID                             : 0
Format                         : MPEG-4 Visual
Format profile                 : Advanced Simple@L5
Format settings                : BVOP1 / Custom Matrix
Format settings, BVOP          : 1
Format settings, QPel          : No
Format settings, GMC           : No warppoints
Format settings, Matrix        : Custom
Codec ID                       : XVID
Codec ID/Hint                  : XviD
Duration                       : 1 h 50 min
Bit rate                       : 1 494 kb/s
Width                          : 720 pixels
Height                         : 304 pixels
Display aspect ratio           : 2.35:1
Frame rate                     : 24.000 FPS
Color space                    : YUV
Chroma subsampling             : 4:2:0
Bit depth                      : 8 bits
Scan type                      : Progressive
Compression mode               : Lossy
Bits/(Pixel*Frame)             : 0.284
Stream size                    : 1.16 GiB (79%)
Writing library                : XviD 73

Audio
ID                             : 1
Format                         : AC-3
Format/Info                    : Audio Coding 3
Commercial name                : Dolby Digital
Codec ID                       : 2000
Duration                       : 1 h 50 min
Bit rate mode                  : Constant
Bit rate                       : 384 kb/s
Channel(s)                     : 6 channels
Channel layout                 : L R C LFE Ls Rs
Sampling rate                  : 48.0 kHz
Frame rate                     : 31.250 FPS (1536 SPF)
Compression mode               : Lossy
Stream size                    : 305 MiB (20%)
Alignment                      : Split across interleaves
Interleave, duration           : 42  ms (1.00 video frame)
Interleave, preload duration   : 500  ms
Service kind                   : Complete Main
Dialog Normalization           : -31 dB
cmixlev                        : -4.5 dB
surmixlev                      : -6 dB
dialnorm_Average               : -31 dB
dialnorm_Minimum               : -31 dB
dialnorm_Maximum               : -31 dB
Скриншоты:

Всего файлов в раздаче: 1 
Captives.2023.WEB-DLRip.AR-Team.avi1.46 GB

Похожие раздачи по запросу - Бал
2024-07-02 magnet Бал сумасшедших / Captives / Party of Fools (2023) WEB-DL 1080p | D 4.43 GB ↑ 0 ↓ 1
2024-07-02 magnet Бал сумасшедших / Captives / Party of Fools (2023) WEB-DLRip-AVC от DoMiNo & селезень | D | CPI Films | Локализованная версия 1.69 GB ↑ 0 ↓ 0
2024-07-02 magnet Бал сумасшедших / Captives / Party of Fools (2023) WEB-DLRip от New-Team | D | Локализованная версия 1.46 GB ↑ 0 ↓ 0
2024-06-10 magnet Бал вампиров / Dance of the Vampires (1967) BDRip 720p от KORSAR | P, A, L1 3.22 GB ↑ 0 ↓ 0

Комментарии


Зарегистрируйтесь чтобы добавить комментарий
Торрент клиент
byTorrent - программа для загрузки торрент-файлов.

Скачать byTorrent.exe (1,5 МБ)

Скачать byTorrent.zip (0,6 МБ)

Поддержи torrent.by
российских рублей
(300 российских рублей это 4$)

Обратная связь rss

End game ©