↑↓torrent.by
Поиск
Логин:  Регистрация
Пароль:

Отважный Бим и пернатые колокольчики / Bim (2023) WEB-DLRip от AR-Team | D

download Скачать торрент-файл   magnet Магнитная ссылка Размер: 742.95 MB Добавлен: temaxa 2024-07-01 19:34
Пиры будут получены из сети DHT
Последний сидер был замечен вчера в 22:41
Отважный Бим и пернатые колокольчики / Bim (2023) WEB-DLRip
Производство: Бельгия / Fabrique Fantastique Жанр: мультфильм, приключения, фэнтези Режиссер: Tom Van Gestel Актеры: Линк Ван Гестель, Абдель Малик Фархуни, Лис Де Шеппер, Тине Эмбрехтс, Джойс Белленс, Янин Бишопс, Камилла Блеро, Мартен Босманс, Говер Деплуаж, Рокко Граната Описание: Перед большим праздником колокольчики собираются вместе, чтобы состязаться в ловкости и отваге. Победителей ждет необыкновенно важная миссия — путешествие в Рим за магическим эликсиром, пробуждающим весну. Удача улыбается Биму и его друзьям. Прежде, чем доставить волшебный трофей, им предстоит схватка с грозной соперницей Авророй и бандой хулиганов. Возраст: 6+ (зрителям, достигшим 6 лет) Релиз от: AR-Team Продолжительность: 01:11:02 Качество видео: WEB-DLRip Перевод: Дублированный (CPI Films) Язык озвучки: Русский Субтитры: Русские (forced, hardsub) Видео: XviD, 720x304, ~1261 Kbps Аудио: AC3, 2 ch, 192 Kbps - Русский
[+] MediaInfo:
General
Complete name                  : Bim.2023.WEB-DLRip.AR-Team.avi
Format                         : AVI
Format/Info                    : Audio Video Interleave
Format settings                : BitmapInfoHeader / WaveFormatEx
File size                      : 743 MiB
Duration                       : 1 h 11 min
Overall bit rate               : 1 462 kb/s
Frame rate                     : 25.000 FPS
Writing application            : VirtualDubMod 1.5.10.3 | (build 2550/release)
Writing library                : VirtualDubMod build 2550/release

Video
ID                             : 0
Format                         : MPEG-4 Visual
Format profile                 : Advanced Simple@L5
Format settings                : BVOP1 / Custom Matrix
Format settings, BVOP          : 1
Format settings, QPel          : No
Format settings, GMC           : No warppoints
Format settings, Matrix        : Custom
Codec ID                       : XVID
Codec ID/Hint                  : XviD
Duration                       : 1 h 11 min
Bit rate                       : 1 261 kb/s
Width                          : 720 pixels
Height                         : 304 pixels
Display aspect ratio           : 2.35:1
Frame rate                     : 25.000 FPS
Color space                    : YUV
Chroma subsampling             : 4:2:0
Bit depth                      : 8 bits
Scan type                      : Progressive
Compression mode               : Lossy
Bits/(Pixel*Frame)             : 0.230
Stream size                    : 640 MiB (86%)
Writing library                : XviD 73

Audio
ID                             : 1
Format                         : AC-3
Format/Info                    : Audio Coding 3
Commercial name                : Dolby Digital
Codec ID                       : 2000
Duration                       : 1 h 11 min
Bit rate mode                  : Constant
Bit rate                       : 192 kb/s
Channel(s)                     : 2 channels
Channel layout                 : L R
Sampling rate                  : 48.0 kHz
Frame rate                     : 31.250 FPS (1536 SPF)
Compression mode               : Lossy
Stream size                    : 97.6 MiB (13%)
Alignment                      : Split across interleaves
Interleave, duration           : 40  ms (1.00 video frame)
Interleave, preload duration   : 500  ms
Service kind                   : Complete Main
Dialog Normalization           : -31 dB
dialnorm_Average               : -31 dB
dialnorm_Minimum               : -31 dB
dialnorm_Maximum               : -31 dB
Скриншоты:

Всего файлов в раздаче: 1 
Bim.2023.WEB-DLRip.AR-Team.avi742.95 MB

Похожие раздачи по запросу - Отважный
2024-07-02 magnet Отважный Бим и пернатые колокольчики / Bim (2023) WEB-DL 1080p | D 2.73 GB ↑ 0 ↓ 1

Комментарии


Зарегистрируйтесь чтобы добавить комментарий
Торрент клиент
byTorrent - программа для загрузки торрент-файлов.

Скачать byTorrent.exe (1,5 МБ)

Скачать byTorrent.zip (0,6 МБ)

Поддержи torrent.by
российских рублей
(300 российских рублей это 4$)

Обратная связь rss

End game ©