↑↓torrent.by
Поиск
Логин:  Регистрация
Пароль:

Игра джентльменов / Долгая игра / The Long Game (2023) WEB-DLRip-AVC | P | TVShows

download Скачать торрент-файл   magnet Магнитная ссылка Размер: 2.32 GB Добавлен: il68k 2024-07-01 23:54
Пиры будут получены из сети DHT
Последний сидер был замечен сегодня в 04:29
Информация о фильме Название: Игра джентльменов / Долгая игра Оригинальное название: The Long Game Год выхода: 2023 Жанр: спорт, драма Режиссер: Хулио Квинтана В ролях: Джей Эрнандес, Дэннис Куэйд, Чич Марин, Джулиан Уоркс, Джейна Ли Ортис, Грегори Диас, Паулина Чавес, Джиллиан Вигмэн, Майкл Саутворт, Армандо Ривера О фильме: Команда гольфистов-любителей открывает по соседству с элитным загородным клубом свой. Здесь нет маршалов, подстриженной по линейке травы и дорогой экипировки. Все своими руками. Но тот, кто преодолеет бункеры из грязи, преграды из кактусов и бокс в раздевалке, будет готов ко всему. Под насмешки всего города команда готовится к своему первому большому турниру. Страна: США Студия: Fifth Season, Bonniedale, Jaguar Bite, Mucho Mas Media, TBD Post Продолжительность: 01:52:46 Перевод: Профессиональный (многоголосый, закадровый) | TVShows Файл Формат: MKV Качество: WEB-DLRip-AVC Видео: AVC/H.264, 1024x510, ~2180 Кбит/с, 23.976 fps Аудио 1: RUS 48 kHz, AC3, 6 ch, ~384 kbps | TVShows Аудио 2: ENG 48 kHz, AC3, 6 ch, ~384 kbps | Оригинал Субтитры: английские (forced, full, SDH), испнаксие, французские Семпл
[+] Скриншоты
[+] MediaInfo Общее Уникальный идентификатор : 99540156811585566862651436787412654216 (0x4AE2BCA354E7C784820BD5B53CD25888) Полное имя : The Long Game (2023) WEB-DLRip AVC _ vitolinform.mkv Формат : Matroska Версия формата : Version 4 Размер файла : 2,32 Гбайт Продолжительность : 1 ч. 52 м. Общий поток : 2 950 Кбит/сек Название фильма : The Long Game (2023) WEB-DLRip AVC _ vitolinform Дата кодирования : UTC 2024-06-30 15:08:08 Программа кодирования : mkvmerge v79.0 ('Funeral Pyres') 64-bit Библиотека кодирования : libebml v1.4.4 + libmatroska v1.7.1 Attachments : poster.jpg / log.log Видео Идентификатор : 1 Формат : AVC Формат/Информация : Advanced Video Codec Профиль формата : High@L4.1 Настройки формата : CABAC / 13 Ref Frames Параметр CABAC формата : Да Параметр RefFrames формата : 13 кадров Идентификатор кодека : V_MPEG4/ISO/AVC Продолжительность : 1 ч. 52 м. Битрейт : 2 180 Кбит/сек Ширина : 1 024 пикселя Высота : 510 пикселей Соотношение сторон : 2,008 Режим частоты кадров : Постоянный Частота кадров : 23,976 (24000/1001) кадра/сек Цветовое пространство : YUV Субдискретизация насыщенности : 4:2:0 Битовая глубина : 8 бит Тип развёртки : Прогрессивная Бит/(Пиксели*Кадры) : 0.174 Размер потока : 1,72 Гбайт (74%) Заголовок : Игра джентльменов / The Long Game (2023) Библиотека кодирования : x264 core 164 r3182 be4f020 Настройки программы : cabac=1 / ref=13 / deblock=1:-3:-3 / analyse=0x3:0x113 / me=umh / subme=10 / psy=1 / psy_rd=1.00:0.05 / mixed_ref=1 / me_range=32 / chroma_me=1 / trellis=2 / 8x8dct=1 / cqm=0 / deadzone=21,11 / fast_pskip=0 / chroma_qp_offset=-3 / threads=12 / lookahead_threads=3 / sliced_threads=0 / nr=0 / decimate=0 / interlaced=0 / bluray_compat=0 / constrained_intra=0 / bframes=11 / b_pyramid=2 / b_adapt=2 / b_bias=0 / direct=1 / weightb=1 / open_gop=0 / weightp=2 / keyint=240 / keyint_min=24 / scenecut=40 / intra_refresh=0 / rc_lookahead=40 / rc=crf / mbtree=0 / crf=18.5 / qcomp=0.60 / qpmin=0 / qpmax=69 / qpstep=4 / vbv_maxrate=50000 / vbv_bufsize=62500 / crf_max=0.0 / nal_hrd=none / filler=0 / ip_ratio=1.40 / pb_ratio=1.30 / aq=1:1.00 Язык : English Default : Да Forced : Нет Цветовой диапазон : Limited Основные цвета : BT.709 Характеристики трансфера : BT.709 Коэффициенты матрицы : BT.709 Аудио #1 Идентификатор : 2 Формат : AC-3 Формат/Информация : Audio Coding 3 Коммерческое название : Dolby Digital Идентификатор кодека : A_AC3 Продолжительность : 1 ч. 52 м. Вид битрейта : Постоянный Битрейт : 384 Кбит/сек Каналы : 6 каналов Channel layout : L R C LFE Ls Rs Частота : 48,0 КГц Частота кадров : 31,250 кадров/сек (1536 SPF) Метод сжатия : С потерями Размер потока : 310 Мбайт (13%) Заголовок : MVO | TVShows Язык : Russian Service kind : Complete Main Default : Да Forced : Нет Аудио #2 Идентификатор : 3 Формат : AC-3 Формат/Информация : Audio Coding 3 Коммерческое название : Dolby Digital Идентификатор кодека : A_AC3 Продолжительность : 1 ч. 52 м. Вид битрейта : Постоянный Битрейт : 384 Кбит/сек Каналы : 6 каналов Channel layout : L R C LFE Ls Rs Частота : 48,0 КГц Частота кадров : 31,250 кадров/сек (1536 SPF) Метод сжатия : С потерями Размер потока : 310 Мбайт (13%) Заголовок : English Язык : English Service kind : Complete Main Default : Нет Forced : Нет Текст #1 Идентификатор : 4 Формат : UTF-8 Идентификатор кодека : S_TEXT/UTF8 Идентификатор кодека/Информация : UTF-8 Plain Text Продолжительность : 1 ч. 12 м. Битрейт : 1 бит/сек Count of elements : 28 Размер потока : 622 байт (0%) Заголовок : Forced Язык : English Default : Нет Forced : Нет Текст #2 Идентификатор : 5 Формат : UTF-8 Идентификатор кодека : S_TEXT/UTF8 Идентификатор кодека/Информация : UTF-8 Plain Text Продолжительность : 1 ч. 42 м. Битрейт : 76 бит/сек Count of elements : 1734 Размер потока : 57,3 Кбайт (0%) Заголовок : English Язык : English Default : Нет Forced : Нет Текст #3 Идентификатор : 6 Формат : UTF-8 Идентификатор кодека : S_TEXT/UTF8 Идентификатор кодека/Информация : UTF-8 Plain Text Продолжительность : 1 ч. 51 м. Битрейт : 73 бит/сек Count of elements : 2180 Размер потока : 59,8 Кбайт (0%) Заголовок : SDH Язык : English Default : Нет Forced : Нет Текст #4 Идентификатор : 7 Формат : UTF-8 Идентификатор кодека : S_TEXT/UTF8 Идентификатор кодека/Информация : UTF-8 Plain Text Продолжительность : 1 ч. 51 м. Битрейт : 50 бит/сек Count of elements : 1386 Размер потока : 41,5 Кбайт (0%) Заголовок : Full Язык : Spanish Default : Нет Forced : Нет Текст #5 Идентификатор : 8 Формат : UTF-8 Идентификатор кодека : S_TEXT/UTF8 Идентификатор кодека/Информация : UTF-8 Plain Text Продолжительность : 1 ч. 51 м. Битрейт : 54 бит/сек Count of elements : 1416 Размер потока : 44,8 Кбайт (0%) Заголовок : Full Язык : French Default : Нет Forced : Нет Меню 00:00:00.000 : :Scene 01 01:46:20.000 : :End Credits
Rip by vitolinform

Всего файлов в раздаче: 1 
The Long Game (2023) WEB-DLRip AVC _ vitolinform.mkv2.32 GB

Похожие раздачи по запросу - Игра джентльменов
2024-07-12 magnet Иван Страхатов - Вся жизнь-игра (2024) MP3 79.19 MB ↑ 0 ↓ 0
2024-07-06 magnet Игра королевы / Firebrand (2023) UHD WEB-DL-HEVC 2160p | 4K | SDR | D | Мосфильм-Мастер 10.48 GB ↑ 0 ↓ 0
2024-07-05 magnet Игра королевы / Firebrand (2023) WEB-DLRip от DoMiNo & селезень | D | Мосфильм-Мастер 1.46 GB ↑ 0 ↓ 0
2024-07-05 magnet Игра королевы / Firebrand (2023) WEB-DLRip 720p от DoMiNo & селезень | D | Мосфильм-Мастер 2.31 GB ↑ 0 ↓ 0
2024-07-01 magnet Игра джентльменов / Долгая игра / The Long Game (2023) WEB-DLRip от New-Team | P | TVShows 1.47 GB ↑ 0 ↓ 0
2024-07-01 magnet Игра джентльменов / Долгая игра / The Long Game (2023) WEB-DL 1080p от New-Team | P | TVShows 8.12 GB ↑ 1 ↓ 0
2024-07-01 magnet Игра джентльменов / Долгая игра / The Long Game (2023) WEB-DL 720p от селезень | P | TVShows 3.78 GB ↑ 0 ↓ 0

Комментарии


Зарегистрируйтесь чтобы добавить комментарий
Торрент клиент
byTorrent - программа для загрузки торрент-файлов.

Скачать byTorrent.exe (1,5 МБ)

Скачать byTorrent.zip (0,6 МБ)

Поддержи torrent.by
российских рублей
(300 российских рублей это 4$)

Обратная связь rss

End game ©