↑↓torrent.by
Поиск
Логин:  Регистрация
Пароль:

Нежить / In a Violent Nature (2024) WEB-DLRip-AVC | P | HDRezka Studio

download Скачать торрент-файл   magnet Магнитная ссылка Размер: 1.46 GB Раздают: 10 Качают: 0 Добавлен: il68k 2024-07-02 00:16
Пиры будут получены из сети DHT
Последний сидер был замечен сегодня в 19:06
Информация о фильме Название: Нежить Оригинальное название: In a Violent Nature Год выпуска: 2023 Жанр: ужасы Режиссер: Крис Нэш В ролях: Райан Баррет, Андреа Павловиц, Камерон Лав, Рис Пресли, Лиам Леоне, Шарлотта Криган, Лиа Роуз Себастианис, Сэм Ролстон, Александр Оливер, Тимоти Пол О фильме: Компания студентов находит в лесу кулон на цепочке и забирает его, тем самым пробуждает беспощадное существо, заключенное в тело казненного много лет назад маньяка. Его нельзя убить, от него нельзя спрятаться или скрыться. Всех, кто встретится на его пути, ждёт смерть. Страна: Канада Студия: Low Sky Productions, Shudder, Zygote Pictures Продолжительность: 01:33:52 Перевод: Профессиональный (многоголосый закадровый) | HDRezka Studio Файл Формат: MKV Качество: WEB-DLRip-AVC Видео: MPEG-4 AVC, 1653 kbps, 768x576 (4:3), 23.976 fps, 0.156 bit/pixel, High@L4.1 Звук 1: 48 kHz, AC3 Dolby Digital, 2/0 (L, R) ch, ~192 kbps | HDRezka Studio Звук 2: 48 kHz, AC3 Dolby Digital, 3/2 (L, C, R, l, r) + LFE ch, ~384 kbps | Английский Субтитры: русские (forced), английские (full, SDH), французские Семпл
[+] Скриншоты
[+] MediaInfo raw : 768x576p 1:1 @ 24000/1001 fps (cfr) x264 : using SAR=1/1 x264 : using cpu capabilities: MMX2 SSE2Fast SSSE3 SSE4.2 AVX FMA3 BMI2 AVX2 x264 : profile High, level 4.1, 4:2:0, 8-bit x264 : frame I:692 Avg QP:16.97 size: 50244 x264 : frame P:28450 Avg QP:18.93 size: 18967 x264 : frame B:105907 Avg QP:20.17 size: 5431 x264 : consecutive B-frames: 1.3% 2.1% 6.1% 28.7% 15.8% 28.2% 6.1% 6.2% 1.5% 0.8% 0.7% 0.7% 0.7% 0.6% 0.5% x264 : mb I I16..4: 7.7% 78.7% 13.6% x264 : mb P I16..4: 0.7% 6.7% 0.6% P16..4: 40.0% 26.0% 16.9% 0.0% 0.0% skip: 9.1% x264 : mb B I16..4: 0.0% 0.4% 0.0% B16..8: 37.3% 10.1% 2.8% direct: 5.1% skip:44.3% L0:45.9% L1:45.2% BI: 8.9% x264 : 8x8 transform intra:83.1% inter:61.4% x264 : direct mvs spatial:97.6% temporal:2.4% x264 : coded y, uvDC, uvAC intra: 87.9% 78.5% 53.8% inter: 23.1% 20.1% 8.4% x264 : i16 v, h, dc, p: 49% 14% 13% 23% x264 : i8 v, h, dc, ddl, ddr, vr, hd, vl, hu: 7% 8% 10% 10% 15% 13% 14% 11% 13% x264 : i4 v, h, dc, ddl, ddr, vr, hd, vl, hu: 7% 12% 5% 9% 15% 12% 14% 11% 15% x264 : i8c dc, h, v, p: 48% 21% 14% 16% x264 : Weighted P-Frames: Y:6.0% UV:3.5% x264 : ref P L0: 44.8% 10.4% 15.4% 5.6% 5.2% 3.6% 3.7% 1.9% 2.0% 1.5% 1.7% 1.4% 1.5% 1.3% 0.1% 0.0% x264 : ref B L0: 62.4% 12.3% 7.2% 4.0% 3.1% 2.7% 2.3% 1.5% 1.3% 1.2% 1.1% 0.7% 0.3% x264 : ref B L1: 92.8% 7.2% x264 : kb/s:1649.47 x264 : encoded 135049 frames, 13.99 fps, 1649.47 kb/s ====================================================================== Общее Уникальный идентификатор: 93557938267331843409002346764639125464 (0x46629A7DF471E724B59FC69EE353BFD8) Полное имя: D:\In a Violent Nature (2024) WEB-DLRip-AVC _ vitolinform.mkv Формат: Matroska Версия формата: Version 4 Размер файла: 1, 46 Гбайт Продолжительность: 1 ч. 33 м. Общий поток: 2 228 Кбит/сек Название фильма: In a Violent Nature (2024) WEB-DLRip-AVC _ vitolinform Дата кодирования: UTC 2024-07-01 10:57:45 Программа кодирования: mkvmerge v79.0 ('Funeral Pyres') 64-bit Библиотека кодирования: libebml v1.4.4 + libmatroska v1.7.1 Attachments: poster.jpg / log.log Видео Идентификатор: 1 Формат: AVC Формат/Информация: Advanced Video Codec Профиль формата: High@L4.1 Настройки формата: CABAC / 14 Ref Frames Параметр CABAC формата: Да Параметр RefFrames формата: 14 кадров Идентификатор кодека: V_MPEG4/ISO/AVC Продолжительность: 1 ч. 33 м. Битрейт: 1 653 Кбит/сек Ширина: 768 пикселей Высота: 576 пикселей Соотношение сторон: 4:3 Режим частоты кадров: Постоянный Частота кадров: 23, 976 (24000/1001) кадра/сек Цветовое пространство: YUV Субдискретизация насыщенности: 4:2:0 Битовая глубина: 8 бит Тип развёртки: Прогрессивная Бит/(Пиксели*Кадры): 0.156 Размер потока: 1, 08 Гбайт (74%) Заголовок: Нежить / In a Violent Nature (2024) Библиотека кодирования: x264 core 164 r3182 be4f020 Настройки программы: cabac=1 / ref=14 / deblock=1:-3:-3 / analyse=0x3:0x113 / me=umh / subme=10 / psy=1 / psy_rd=1.00:0.05 / mixed_ref=1 / me_range=32 / chroma_me=1 / trellis=2 / 8x8dct=1 / cqm=0 / deadzone=21, 11 / fast_pskip=0 / chroma_qp_offset=-3 / threads=12 / lookahead_threads=3 / sliced_threads=0 / nr=0 / decimate=0 / interlaced=0 / bluray_compat=0 / constrained_intra=0 / bframes=14 / b_pyramid=2 / b_adapt=2 / b_bias=0 / direct=3 / weightb=1 / open_gop=0 / weightp=2 / keyint=240 / keyint_min=24 / scenecut=40 / intra_refresh=0 / rc_lookahead=60 / rc=2pass / mbtree=0 / bitrate=1653 / ratetol=1.0 / qcomp=0.60 / qpmin=0 / qpmax=69 / qpstep=4 / cplxblur=20.0 / qblur=0.5 / vbv_maxrate=50000 / vbv_bufsize=62500 / nal_hrd=none / filler=0 / ip_ratio=1.40 / pb_ratio=1.30 / aq=1:1.00 Язык: English Default: Да Forced: Нет Цветовой диапазон: Limited Основные цвета: BT.709 Характеристики трансфера: BT.709 Коэффициенты матрицы: BT.709 Аудио #1 Идентификатор: 2 Формат: AC-3 Формат/Информация: Audio Coding 3 Коммерческое название: Dolby Digital Идентификатор кодека: A_AC3 Продолжительность: 1 ч. 33 м. Вид битрейта: Постоянный Битрейт: 192 Кбит/сек Каналы: 2 канала Channel layout: L R Частота: 48, 0 КГц Частота кадров: 31, 250 кадров/сек (1536 SPF) Метод сжатия: С потерями Размер потока: 129 Мбайт (9%) Заголовок: MVO - HDRezka Studio Язык: Russian Service kind: Complete Main Default: Да Forced: Нет Аудио #2 Идентификатор: 3 Формат: AC-3 Формат/Информация: Audio Coding 3 Коммерческое название: Dolby Digital Идентификатор кодека: A_AC3 Продолжительность: 1 ч. 33 м. Вид битрейта: Постоянный Битрейт: 384 Кбит/сек Каналы: 6 каналов Channel layout: L R C LFE Ls Rs Частота: 48, 0 КГц Частота кадров: 31, 250 кадров/сек (1536 SPF) Метод сжатия: С потерями Размер потока: 258 Мбайт (17%) Заголовок: English Язык: English Service kind: Complete Main Default: Нет Forced: Нет Текст #1 Идентификатор: 4 Формат: UTF-8 Идентификатор кодека: S_TEXT/UTF8 Идентификатор кодека/Информация: UTF-8 Plain Text Продолжительность: 20 м. 12 с. Битрейт: 1 бит/сек Count of elements: 6 Размер потока: 258 байт (0%) Заголовок: Forced Язык: Russian Default: Да Forced: Нет Текст #2 Идентификатор: 5 Формат: UTF-8 Идентификатор кодека: S_TEXT/UTF8 Идентификатор кодека/Информация: UTF-8 Plain Text Продолжительность: 1 ч. 33 м. Битрейт: 36 бит/сек Count of elements: 807 Размер потока: 25, 2 Кбайт (0%) Заголовок: Full Язык: English Default: Нет Forced: Нет Текст #3 Идентификатор: 6 Формат: UTF-8 Идентификатор кодека: S_TEXT/UTF8 Идентификатор кодека/Информация: UTF-8 Plain Text Продолжительность: 1 ч. 33 м. Битрейт: 40 бит/сек Count of elements: 1028 Размер потока: 27, 9 Кбайт (0%) Заголовок: SDH Язык: English Default: Нет Forced: Нет Текст #4 Идентификатор: 7 Формат: UTF-8 Идентификатор кодека: S_TEXT/UTF8 Идентификатор кодека/Информация: UTF-8 Plain Text Продолжительность: 1 ч. 27 м. Битрейт: 35 бит/сек Count of elements: 770 Размер потока: 22, 9 Кбайт (0%) Заголовок: Full Язык: French Default: Нет Forced: Нет Меню 00:00:00.000: en:Scene 01 01:30:36.500: en:End Credits
Rip by vitolinform

Всего файлов в раздаче: 1 
In a Violent Nature (2024) WEB-DLRip AVC _ vitolinform.mkv1.46 GB

Похожие раздачи по запросу - Нежить
2024-07-03 magnet Нежить / In a Violent Nature (2024) WEB-DL-HEVC 2160p | 4K | SDR | P, L 10.39 GB ↑ 0 ↓ 0
2024-07-02 magnet Нежить / In a Violent Nature (2024) WEB-DL 720p от селезень | P | HDRezka Studio 2.94 GB ↑ 0 ↓ 0
2024-07-02 magnet Нежить / In a Violent Nature (2024) WEB-DLRip от DoMiNo & селезень | P | HDRezka Studio 1.37 GB ↑ 0 ↓ 0
2024-07-01 magnet Нежить / In a Violent Nature (2024) WEB-DL 1080p от New-Team | P | HDRezka Studio 6.57 GB ↑ 0 ↓ 0
2024-07-01 magnet Нежить / In a Violent Nature (2024) WEB-DLRip от New-Team | P | HDRezka Studio 1.46 GB ↑ 0 ↓ 0
2024-06-29 magnet Нежить / In a Violent Nature (2024) WEB-DLRip-AVC | L 1.46 GB ↑ 5 ↓ 0
2024-06-29 magnet Нежить / In a Violent Nature (2024) WEB-DLRip-AVC | L 1.39 GB ↑ 33 ↓ 1

Комментарии


Зарегистрируйтесь чтобы добавить комментарий
Торрент клиент
byTorrent - программа для загрузки торрент-файлов.

Скачать byTorrent.exe (1,5 МБ)

Скачать byTorrent.zip (0,6 МБ)

Поддержи torrent.by
российских рублей
(300 российских рублей это 4$)

Обратная связь rss

End game ©