↑↓torrent.by
Поиск
Логин:  Регистрация
Пароль:

The Warning - Keep Me Fed [24-bit Hi-Res] (2024) FLAC

download Скачать торрент-файл   magnet Магнитная ссылка Размер: 496.67 MB Добавлен: 2024-07-02 05:00
Пиры будут получены из сети DHT
Последний сидер был замечен 2024-07-10 02:34
Название: Keep Me Fed Исполнитель: The Warning Год: 2024 Жанр: Rock, Alternative-Rock Издатель (лейбл): Lava - Republic Records Продолжительность: 00:38:41 Формат/Кодек: FLAC Тип рипа: Tracks Битрейт аудио: Lossless Разрядность: 24 Bit/48 kHz
[+] Трек-лист 01. Six Feet Deep (00:03:00) 02. S!Ck (00:03:13) 03. Apologize (00:03:41) 04. Qué Más Quieres (00:03:05) 05. More (00:03:08) 06. Escapism (00:03:37) 07. Satisfied (00:03:10) 08. Burnout (00:03:25) 09. Sharks (00:03:08) 10. Hell You Call A Dream (00:02:56) 11. Consume (00:03:07) 12. Automatic Sun (00:03:11)
[+] DRM foobar2000 1.5.5 / Замер динамического диапазона (DR) 1.1.1 ------------------------------------------------------------------------------- Анализ: The Warning / Keep Me Fed -------------------------------------------------------------------------------- DR Пики RMS Продолжительность трека -------------------------------------------------------------------------------- DR4 -0.20 дБ -5.29 дБ 3:00 01-Six Feet Deep DR4 -0.20 дБ -6.09 дБ 3:13 02-S!Ck DR4 -0.20 дБ -6.71 дБ 3:41 03-Apologize DR4 -0.20 дБ -5.95 дБ 3:05 04-Qué Más Quieres DR4 -0.20 дБ -6.78 дБ 3:08 05-More DR4 -0.20 дБ -6.55 дБ 3:37 06-Escapism DR4 -0.20 дБ -5.60 дБ 3:10 07-Satisfied DR4 -0.20 дБ -5.56 дБ 3:25 08-Burnout DR4 -0.20 дБ -6.50 дБ 3:08 09-Sharks DR4 -0.20 дБ -6.25 дБ 2:56 10-Hell You Call A Dream DR4 -0.20 дБ -5.23 дБ 3:07 11-Consume DR3 -0.20 дБ -5.52 дБ 3:11 12-Automatic Sun -------------------------------------------------------------------------------- Количество треков: 12 Реальные значения DR: DR4 Частота: 48000 Гц Каналов: 2 Разрядность: 24 Битрейт: 1825 кбит/с Кодек: FLAC ================================================================================
Время раздачи: 24/7 (минимум до появления первых 3-5 скачавших, на раздачи не возвращаюсь) Первое правило участника файлообмена: "Скачал сам - дай скачать другому!"

Всего файлов в раздаче: 13 
01. Six Feet Deep.flac39.84 MB
02. S!CK.flac42.34 MB
03. Apologize.flac44.70 MB
04. Qué Más Quieres.flac38.61 MB
05. MORE.flac39.93 MB
06. Escapism.flac44.40 MB
07. Satisfied.flac41.29 MB
08. Burnout.flac45.04 MB
09. Sharks.flac39.98 MB
10. Hell You Call A Dream.flac38.26 MB
Показать все файлы

Комментарии


Зарегистрируйтесь чтобы добавить комментарий
Торрент клиент
byTorrent - программа для загрузки торрент-файлов.

Скачать byTorrent.exe (1,5 МБ)

Скачать byTorrent.zip (0,6 МБ)

Поддержи torrent.by
российских рублей
(300 российских рублей это 4$)

Обратная связь rss

End game ©