↑↓torrent.by
Поиск
Логин:  Регистрация
Пароль:

Я иду искать / Ready or Not (2019) BDRip 1080p от Переулка Переводмана | D, A, L1

download Скачать торрент-файл   magnet Магнитная ссылка Размер: 7.65 GB Раздают: 0 Качают: 1 Добавлен: 2024-07-02 05:00
Пиры будут получены из сети DHT
Последний сидер был замечен 2024-07-02 05:00
Название: Я иду искать Оригинальное название: Ready or Not Год выхода: 2019 Страна: США, Канада Студия: Fox Searchlight Pictures, Mythology Entertainment, Vinson Films Продолжительность: 01:35:22 Жанр: триллер, комедия, ужасы Режиссер: Мэттью Беттинелли, Тайлер Джиллетт В ролях: Самара Уивинг, Адам Броди, Марк О`Брайэн, Генри Черни, Энди МакДауэлл, Мелани Скрофано, Кристиан Бруун, Никки Гуаданьи, Элиз Левек, Джон Ралстон, ... Перевод: • Профессиональный (дублированный) Пифагор • Авторский (одноголосый, закадровый) Есарев Дмитрий • Любительский (одноголосый, закадровый) Солодухин Евгений • Субтитры О фильме: Молодая невеста — теперь часть семьи своего новоиспеченного мужа, богатого, но эксцентричного рода, чтящего вековые традиции. Кто бы мог подумать, что первая брачная ночь превратится в смертельную игру с новообретёнными родственниками, в которой девушке нужно будет очень постараться, чтобы дожить до рассвета… Кодек: x264 Качество: BDRip 1080p Видео: 1920x804, 8500 kbps, 23,976 fps Аудио #1: AC-3, 6 ch, 384 kbps (Rus) - Dub Пифагор (iTunes) Аудио #2: AC-3, 6 ch, 640 kbps (Rus) - AVO Есарев Дмитрий Аудио #3: AC-3, 6 ch, 448 kbps (Rus) - VO Солодухин Евгений (SOLOD) Аудио #4: DTS, 6 ch, 1509 kbps (Eng) Субтитры: русские (forced, full), английские Спасибо за исходник
[+] Дополнительная информацияПеревод и озвучка Дмитрия Есарева доступны благодаря Переулку Переводмана и stimco, garik123, kostasmen, podorov92, nikolas, maxxsss, Battemen, VitVil, igrok2012, DarveSh, Shrooms, van156, Himik968, VampirL, alexandr163ru, BizzyD. Сведение с голосом и постер - Переводман
[+] MediaInfo x264 : frame I:897 Avg QP:13.42 size:208020 x264 : frame P:29759 Avg QP:16.11 size: 84690 x264 : frame B:106552 Avg QP:18.59 size: 31657 x264 : consecutive B-frames: 1.8% 4.7% 6.5% 17.2% 18.9% 35.5% 7.9% 5.1% 1.2% 0.4% 0.3% 0.5% 0.1% Общее Уникальный идентификатор : 180107189767055861426664398609313034596 (0x877F620C1A6DAA4FA1E4AC5E14E5F164) Полное имя : Я иду искать (Ready or Not) 2019 BDRip 1080p.mkv Формат : Matroska Версия формата : Version 2 Размер файла : 7,65 Гбайт Продолжительность : 1 ч. 35 м. Общий поток : 11,5 Мбит/сек Дата кодирования : UTC 2020-03-13 20:14:01 Программа кодирования : mkvmerge v4.0.0 ('The Stars were mine') сборка от Jun 6 2010 16:18:42 Библиотека кодирования : libebml v1.0.0 + libmatroska v1.0.0 Видео Идентификатор : 1 Формат : AVC Формат/Информация : Advanced Video Codec Профиль формата : High@L4.1 Параметр CABAC формата : Да Параметр ReFrames формата : 5 кадров Идентификатор кодека : V_MPEG4/ISO/AVC Продолжительность : 1 ч. 35 м. Битрейт : 8500 Кбит/сек Ширина : 1920 пикселей Высота : 804 пикселя Соотношение сторон : 2,40:1 Режим частоты кадров : Постоянный Частота кадров : 23,976 (24000/1001) кадра/сек Цветовое пространство : YUV Субдискретизация насыщенности : 4:2:0 Битовая глубина : 8 бит Тип развёртки : Прогрессивная Бит/(Пиксели*Кадры) : 0.230 Размер потока : 5,51 Гбайт (72%) Библиотека кодирования : x264 core 146 r2538 121396c Настройки программы : cabac=1 / ref=5 / deblock=1:-2:-2 / analyse=0x3:0x133 / me=umh / subme=11 / psy=1 / psy_rd=1.00:0.00 / mixed_ref=1 / me_range=32 / chroma_me=1 / trellis=2 / 8x8dct=1 / cqm=0 / deadzone=21,11 / fast_pskip=0 / chroma_qp_offset=-2 / threads=12 / lookahead_threads=2 / sliced_threads=0 / nr=0 / decimate=0 / interlaced=0 / bluray_compat=0 / constrained_intra=0 / bframes=12 / b_pyramid=2 / b_adapt=2 / b_bias=0 / direct=3 / weightb=1 / open_gop=0 / weightp=2 / keyint=240 / keyint_min=23 / scenecut=40 / intra_refresh=0 / rc=2pass / mbtree=0 / bitrate=8500 / ratetol=1.0 / qcomp=0.60 / qpmin=0 / qpmax=69 / qpstep=4 / cplxblur=20.0 / qblur=0.5 / ip_ratio=1.40 / pb_ratio=1.30 / aq=3:0.80 Язык : English Default : Нет Forced : Нет Аудио #1 Идентификатор : 2 Формат : AC-3 Формат/Информация : Audio Coding 3 Расширение режима : CM (complete main) Параметр Endianness формата : Big Идентификатор кодека : A_AC3 Продолжительность : 1 ч. 35 м. Вид битрейта : Постоянный Битрейт : 384 Кбит/сек Каналы : 6 каналов Расположение каналов : Front: L C R, Side: L R, LFE Частота : 48,0 КГц Частота кадров : 31,250 кадров/сек (1536 spf) Метод сжатия : С потерями Размер потока : 262 Мбайт (3%) Заголовок : Dub Пифагор (iTunes) Язык : Russian Default : Нет Forced : Нет Аудио #2 Идентификатор : 3 Формат : AC-3 Формат/Информация : Audio Coding 3 Расширение режима : CM (complete main) Параметр Endianness формата : Big Идентификатор кодека : A_AC3 Продолжительность : 1 ч. 35 м. Вид битрейта : Постоянный Битрейт : 640 Кбит/сек Каналы : 6 каналов Расположение каналов : Front: L C R, Side: L R, LFE Частота : 48,0 КГц Частота кадров : 31,250 кадров/сек (1536 spf) Метод сжатия : С потерями Размер потока : 437 Мбайт (6%) Заголовок : AVO Есарев Дмитрий Язык : Russian Default : Нет Forced : Нет Аудио #3 Идентификатор : 4 Формат : AC-3 Формат/Информация : Audio Coding 3 Расширение режима : CM (complete main) Параметр Endianness формата : Big Идентификатор кодека : A_AC3 Продолжительность : 1 ч. 35 м. Вид битрейта : Постоянный Битрейт : 448 Кбит/сек Каналы : 6 каналов Расположение каналов : Front: L C R, Side: L R, LFE Частота : 48,0 КГц Частота кадров : 31,250 кадров/сек (1536 spf) Метод сжатия : С потерями Размер потока : 306 Мбайт (4%) Заголовок : VO Солодухин Евгений (SOLOD) Язык : Russian Default : Нет Forced : Нет Аудио #4 Идентификатор : 5 Формат : DTS Формат/Информация : Digital Theater Systems Режим : 16 Параметр Endianness формата : Big Идентификатор кодека : A_DTS Продолжительность : 1 ч. 35 м. Вид битрейта : Постоянный Битрейт : 1509 Кбит/сек Каналы : 6 каналов Расположение каналов : Front: L C R, Side: L R, LFE Частота : 48,0 КГц Частота кадров : 93,750 кадра/сек (512 spf) Битовая глубина : 24 бит Метод сжатия : С потерями Размер потока : 1,01 Гбайт (13%) Язык : English Default : Нет Forced : Нет Текст #1 Идентификатор : 6 Формат : UTF-8 Идентификатор кодека : S_TEXT/UTF8 Идентификатор кодека/Информация : UTF-8 Plain Text Заголовок : Forced Язык : Russian Default : Нет Forced : Нет Текст #2 Идентификатор : 7 Формат : UTF-8 Идентификатор кодека : S_TEXT/UTF8 Идентификатор кодека/Информация : UTF-8 Plain Text Язык : Russian Default : Нет Forced : Нет Текст #3 Идентификатор : 8 Формат : UTF-8 Идентификатор кодека : S_TEXT/UTF8 Идентификатор кодека/Информация : UTF-8 Plain Text Язык : English Default : Нет Forced : Нет Меню 00:00:00.000 : :Chapter 01 00:03:11.817 : :Chapter 02 00:06:49.534 : :Chapter 03 00:09:27.776 : :Chapter 04 00:12:27.038 : :Chapter 05 00:16:24.150 : :Chapter 06 00:21:57.942 : :Chapter 07 00:25:21.061 : :Chapter 08 00:28:00.262 : :Chapter 09 00:31:21.922 : :Chapter 10 00:34:46.459 : :Chapter 11 00:36:08.625 : :Chapter 12 00:38:23.760 : :Chapter 13 00:41:55.930 : :Chapter 14 00:45:40.363 : :Chapter 15 00:48:03.047 : :Chapter 16 00:51:50.441 : :Chapter 17 00:54:05.075 : :Chapter 18 00:57:05.088 : :Chapter 19 00:59:52.714 : :Chapter 20 01:01:37.903 : :Chapter 21 01:04:01.671 : :Chapter 22 01:07:31.422 : :Chapter 23 01:09:25.828 : :Chapter 24 01:11:48.304 : :Chapter 25 01:15:59.722 : :Chapter 26 01:18:34.585 : :Chapter 27 01:21:39.645 : :Chapter 28 01:24:07.292 : :Chapter 29 01:27:48.013 : :Chapter 30 01:29:22.315 : :Chapter 31 01:30:49.152 : :Chapter 32
[+] Скриншоты:

Всего файлов в раздаче: 1 
Я иду искать (Ready or Not) 2019 BDRip 1080p.mkv7.65 GB

Похожие раздачи по запросу - иду
2024-07-02 magnet Я иду искать / Ready or Not (2019) BDRip 720p от Scarabey | iTunes 5.18 GB ↑ 0 ↓ 0
2024-05-18 magnet Я иду тебя искать / Сезон: 7 / Серии: 1-4 из 4 [2024, детектив, WEBRip-AVC] от Aleksan55 2.21 GB ↑ 0 ↓ 0
2022-11-27 magnet Я иду искать. Королевская игра / Hounded (2022) WEB-DLRip-AVC от ExKinoRay | D 745.44 MB ↑ 0 ↓ 0

Комментарии


Зарегистрируйтесь чтобы добавить комментарий
Торрент клиент
byTorrent - программа для загрузки торрент-файлов.

Скачать byTorrent.exe (1,5 МБ)

Скачать byTorrent.zip (0,6 МБ)

Поддержи torrent.by
российских рублей
(300 российских рублей это 4$)

Обратная связь rss

End game ©