↑↓torrent.by
Поиск
Логин:  Регистрация
Пароль:

Neil Diamond - 12 Songs [24-bit Hi-Res, Deluxe Edition] (2005/2024) FLAC

download Скачать торрент-файл   magnet Магнитная ссылка Размер: 1.16 GB Добавлен: 2024-07-02 05:00
Пиры будут получены из сети DHT
Последний сидер был замечен 2024-07-15 01:08
Название: 12 Songs (Deluxe Edition) Исполнитель: Neil Diamond Композитор: Neil Diamond Год: 2005/2024 Жанр: Pop Издатель (лейбл): Neil Diamond Продолжительность: 01:54:41 Формат/Кодек: FLAC Тип рипа: Tracks Битрейт аудио: Lossless Разрядность: 24 Bit/44,1 kHz
[+] Трек-лист 01. Oh Mary (00:05:12) 02. Hell Yeah (00:04:26) 03. Captain Of A Shipwreck (00:03:55) 04. Evermore (00:05:19) 05. Save Me A Saturday Night (00:03:32) 06. Delirious Love (00:03:12) 07. I'm On To You (00:04:28) 08. What's It Gonna Be (00:04:05) 09. Man Of God (00:04:22) 10. Create Me (00:04:10) 11. Face Me (00:03:27) 12. We (00:03:51) 13. Men Are So Easy (00:04:04) 14. Delirious Love (00:03:24) 15. Oh Mary (Demo) (00:04:17) 16. Hell Yeah (Early Take) (00:04:50) 17. Captain Of A Shipwreck (Alternate Take) (00:04:04) 18. Evermore (Early Take) (00:04:49) 19. Save Me A Saturday Night (Alternate Take) (00:04:13) 20. Delirious Love (Early Take) (00:03:16) 21. I'm On To You (Demo) (00:03:30) 22. What's It Gonna Be (Alternate Take) (00:05:04) 23. Man Of God (Early Take) (00:04:58) 24. Create Me (Alternate Take) (00:04:30) 25. Face Me (Demo) (00:03:24) 26. We (Early Take) (00:04:11) 27. Men Are So Easy (Alternate Mix) (00:06:08)
[+] DRM foobar2000 1.5.5 / Замер динамического диапазона (DR) 1.1.1 ------------------------------------------------------------------------------- Анализ: Neil Diamond / 12 Songs -------------------------------------------------------------------------------- DR Пики RMS Продолжительность трека -------------------------------------------------------------------------------- DR11 -0.71 дБ -13.62 дБ 5:12 01-Oh Mary DR8 -0.70 дБ -12.17 дБ 4:26 02-Hell Yeah DR9 -0.70 дБ -11.82 дБ 3:55 03-Captain Of A Shipwreck DR7 -0.71 дБ -12.37 дБ 5:19 04-Evermore DR8 -0.71 дБ -11.64 дБ 3:32 05-Save Me A Saturday Night DR8 -0.70 дБ -9.92 дБ 3:12 06-Delirious Love DR7 -0.70 дБ -9.85 дБ 4:28 07-I'm On To You DR8 -0.70 дБ -11.36 дБ 4:05 08-What's It Gonna Be DR7 -0.70 дБ -10.25 дБ 4:22 09-Man Of God DR7 -0.70 дБ -11.15 дБ 4:10 10-Create Me DR8 -0.70 дБ -10.54 дБ 3:27 11-Face Me DR8 -0.70 дБ -10.64 дБ 3:51 12-We DR7 -0.70 дБ -11.92 дБ 4:04 13-Men Are So Easy DR6 -0.70 дБ -7.72 дБ 3:24 14-Delirious Love DR8 -0.71 дБ -10.97 дБ 4:17 15-Oh Mary (Demo) DR7 -0.70 дБ -9.94 дБ 4:50 16-Hell Yeah (Early Take) DR7 -0.71 дБ -9.86 дБ 4:04 17-Captain Of A Shipwreck (Alternate Take) DR8 -0.70 дБ -10.35 дБ 4:49 18-Evermore (Early Take) DR10 -0.71 дБ -11.89 дБ 4:13 19-Save Me A Saturday Night (Alternate Take) DR9 -0.70 дБ -10.79 дБ 3:16 20-Delirious Love (Early Take) DR8 -0.71 дБ -11.23 дБ 3:30 21-I'm On To You (Demo) DR9 -0.71 дБ -13.80 дБ 5:04 22-What's It Gonna Be (Alternate Take) DR9 -0.70 дБ -12.22 дБ 4:58 23-Man Of God (Early Take) DR9 -0.71 дБ -11.61 дБ 4:30 24-Create Me (Alternate Take) DR8 -0.70 дБ -10.54 дБ 3:24 25-Face Me (Demo) DR9 -0.71 дБ -11.86 дБ 4:11 26-We (Early Take) DR9 -0.71 дБ -12.16 дБ 6:08 27-Men Are So Easy (Alternate Mix) -------------------------------------------------------------------------------- Количество треков: 27 Реальные значения DR: DR8 Частота: 44100 Гц Каналов: 2 Разрядность: 24 Битрейт: 1403 кбит/с Кодек: FLAC ================================================================================
Время раздачи: 24/7 (минимум до появления первых 3-5 скачавших, на раздачи не возвращаюсь) Первое правило участника файлообмена: "Скачал сам - дай скачать другому!"

Всего файлов в раздаче: 28 
01. Oh Mary.flac52.61 MB
02. Hell Yeah.flac47.19 MB
03. Captain Of A Shipwreck.flac42.01 MB
04. Evermore.flac54.33 MB
05. Save Me A Saturday Night.flac34.98 MB
06. Delirious Love.flac36.82 MB
07. I'm On To You.flac48.74 MB
08. What's It Gonna Be.flac40.87 MB
09. Man Of God.flac46.10 MB
10. Create Me.flac42.68 MB
Показать все файлы

Похожие раздачи по запросу - Neil
2024-07-04 magnet Neil Sadler - Past To Present (2024) MP3 133.59 MB ↑ 0 ↓ 0
2024-07-02 magnet Neil Diamond - 12 Songs [Deluxe Edition] (2005/2024) MP3 263.93 MB ↑ 0 ↓ 0
2024-07-02 magnet Neil Young - Early Daze [24-bit Hi-Res] (2024) FLAC 1.43 GB ↑ 0 ↓ 0
2024-07-01 magnet Neil Young - Early Daze (2024) MP3 89.59 MB ↑ 0 ↓ 0
2024-05-23 magnet Neil Young - Roskilde Festival (2024) FLAC 952.78 MB ↑ 0 ↓ 0

Комментарии


Зарегистрируйтесь чтобы добавить комментарий
Торрент клиент
byTorrent - программа для загрузки торрент-файлов.

Скачать byTorrent.exe (1,5 МБ)

Скачать byTorrent.zip (0,6 МБ)

Поддержи torrent.by
российских рублей
(300 российских рублей это 4$)

Обратная связь rss

End game ©