↑↓torrent.by
Поиск
Логин:  Регистрация
Пароль:

Нежить / In a Violent Nature (2024) WEB-DLRip от DoMiNo & селезень | P | HDRezka Studio

download Скачать торрент-файл   magnet Магнитная ссылка Размер: 1.37 GB Добавлен: 2024-07-02 05:00
Пиры будут получены из сети DHT
Последний сидер был замечен 2024-07-07 09:50
Информация о фильме Название: Нежить Оригинальное название: In a Violent Nature Год выпуска: 2024 Жанр: Ужасы Режиссер: Крис Нэш / Chris Nash В ролях: Райан Баррет, Андреа Павловиц, Камерон Лав, Рис Пресли, Лиам Леоне, Шарлотта Криган, Лиа Роуз Себастианис, Сэм Ролстон, Александр Оливер, Тимоти Пол О фильме: Группа отдыхавших на природе парней и девушек пробуждает к жизни беспощадное существо, заключенное в тело казненного много лет назад маньяка. Его нельзя убить, от него нельзя убежать, спрятаться или скрыться. Всех, кто встретит его на пути, ждет единственный смертельный исход. Как им справиться с неумолимым воплощением самого зла? Продолжительность: 01:33:53 Перевод: Профессиональный (многоголосый, закадровый) | HDRezka Studio Субтитры: Русские (Forced - хардсаб) Файл Формат: AVI Качество: WEB-DLRip Видео: 704x528 at 23.976 fps, XviD 69, ~1889 kbps Аудио: AC3, 2 ch, ~192 kbps - | Русский | Формат субтитров: хардсаб
[+] M/IGeneral Complete name : S:In.a.Violent.Nature.2024.AMZN.WEB-DLRip.seleZen.avi Format : AVI Format/Info : Audio Video Interleave Format settings : BitmapInfoHeader / WaveFormatEx File size : 1.37 GiB Duration : 1 h 33 min Overall bit rate : 2 090 kb/s Frame rate : 23.976 FPS Movie name : In.a.Violent.Nature.2024.AMZN.WEB-DLRip.seleZen Writing application : VirtualDubModRus 1.5.10.2 (build 2542/release) Writing library : VirtualDubMod build 2542/release Copyright : -=DoMiNo=- Video ID : 0 Format : MPEG-4 Visual Format profile : Advanced Simple@L5 Format settings : BVOP1 / Custom Matrix Format settings, BVOP : 1 Format settings, QPel : No Format settings, GMC : No warppoints Format settings, Matrix : Custom Codec ID : XVID Codec ID/Hint : XviD Duration : 1 h 33 min Bit rate : 1 889 kb/s Width : 704 pixels Height : 528 pixels Display aspect ratio : 4:3 Frame rate : 23.976 (24000/1001) FPS Color space : YUV Chroma subsampling : 4:2:0 Bit depth : 8 bits Scan type : Progressive Compression mode : Lossy Bits/(Pixel*Frame) : 0.212 Stream size : 1.24 GiB (90%) Writing library : XviD 69 Audio ID : 1 Format : AC-3 Format/Info : Audio Coding 3 Commercial name : Dolby Digital Codec ID : 2000 Duration : 1 h 33 min Bit rate mode : Constant Bit rate : 192 kb/s Channel(s) : 2 channels Channel layout : L R Sampling rate : 48.0 kHz Frame rate : 31.250 FPS (1536 SPF) Compression mode : Lossy Stream size : 129 MiB (9%) Alignment : Split across interleaves Interleave, duration : 42 ms (1.00 video frame) Interleave, preload duratio : 500 ms Service kind : Complete Main Dialog Normalization : -31 dB dialnorm_Average : -31 dB dialnorm_Minimum : -31 dB dialnorm_Maximum : -31 dB
Релиз: Присоединяйся к: Кликай на баннеры.

Всего файлов в раздаче: 1 
In.a.Violent.Nature.2024.AMZN.WEB-DLRip.seleZen.avi1.37 GB

Похожие раздачи по запросу - Нежить
2024-07-03 magnet Нежить / In a Violent Nature (2024) WEB-DL-HEVC 2160p | 4K | SDR | P, L 10.39 GB ↑ 0 ↓ 0
2024-07-02 magnet Нежить / In a Violent Nature (2024) WEB-DL 720p от селезень | P | HDRezka Studio 2.94 GB ↑ 0 ↓ 0
2024-07-02 magnet Нежить / In a Violent Nature (2024) WEB-DLRip-AVC | P | HDRezka Studio 1.46 GB ↑ 2 ↓ 0
2024-07-01 magnet Нежить / In a Violent Nature (2024) WEB-DL 1080p от New-Team | P | HDRezka Studio 6.57 GB ↑ 0 ↓ 0
2024-07-01 magnet Нежить / In a Violent Nature (2024) WEB-DLRip от New-Team | P | HDRezka Studio 1.46 GB ↑ 0 ↓ 0
2024-06-29 magnet Нежить / In a Violent Nature (2024) WEB-DLRip-AVC | L 1.46 GB ↑ 0 ↓ 0
2024-06-29 magnet Нежить / In a Violent Nature (2024) WEB-DLRip-AVC | L 1.39 GB ↑ 13 ↓ 1

Комментарии


Зарегистрируйтесь чтобы добавить комментарий
Торрент клиент
byTorrent - программа для загрузки торрент-файлов.

Скачать byTorrent.exe (1,5 МБ)

Скачать byTorrent.zip (0,6 МБ)

Поддержи torrent.by
российских рублей
(300 российских рублей это 4$)

Обратная связь rss

End game ©