↑↓torrent.by
Поиск
Логин:  Регистрация
Пароль:

Megan Thee Stallion - Megan [24-bit Hi-Res] (2024) FLAC

download Скачать торрент-файл   magnet Магнитная ссылка Размер: 600.74 MB Добавлен: 2024-07-02 05:00
Пиры будут получены из сети DHT
Последний сидер был замечен 2024-07-10 02:34
Название: Megan Исполнитель: Megan Thee Stallion Год: 2024 Жанр: Rap Издатель (лейбл): Hot Girl Productions Продолжительность: 00:52:08 Формат/Кодек: FLAC Тип рипа: Tracks Битрейт аудио: Lossless Разрядность: 24 Bit/44,1 kHz
[+] Трек-лист 01. Hiss (00:03:13) 02. Rattle (00:03:25) 03. Figueroa (00:02:24) 04. Where Them Girls At (00:03:12) 05. Broke His Heart (00:02:39) 06. B.A.S. (feat. Kyle Richh) (00:03:26) 07. Otaku Hot Girl (00:02:39) 08. Find Out (00:02:36) 09. Boa (00:02:35) 10. Mamushi (feat. Yuki Chiba) (00:02:37) 11. Accent (feat. Glorilla) (00:03:20) 12. Paper Together (feat. Ugk) (00:03:36) 13. Spin (feat. Victoria Monét) (00:03:08) 14. Down Stairs DJ (00:02:44) 15. Miami Blue (feat. Big K.R.I.T. & Buddah Bless) (00:02:38) 16. Worthy (00:02:19) 17. Moody Girl (00:02:48) 18. Cobra (00:02:49)
[+] DRM foobar2000 1.5.5 / Замер динамического диапазона (DR) 1.1.1 ------------------------------------------------------------------------------- Анализ: Megan Thee Stallion / Megan -------------------------------------------------------------------------------- DR Пики RMS Продолжительность трека -------------------------------------------------------------------------------- DR3 -0.01 дБ -5.21 дБ 3:13 01-Hiss DR4 -0.01 дБ -5.08 дБ 3:25 02-Rattle DR3 -0.01 дБ -4.83 дБ 2:24 03-Figueroa DR4 -0.01 дБ -4.63 дБ 3:12 04-Where Them Girls At DR3 -0.01 дБ -4.31 дБ 2:39 05-Broke His Heart DR4 -0.01 дБ -4.61 дБ 3:26 06-B.A.S. (feat. Kyle Richh) DR4 -0.01 дБ -4.32 дБ 2:39 07-Otaku Hot Girl DR4 -0.01 дБ -5.64 дБ 2:36 08-Find Out DR4 -0.01 дБ -5.23 дБ 2:35 09-Boa DR4 -0.01 дБ -5.76 дБ 2:37 10-Mamushi (feat. Yuki Chiba) DR5 -0.01 дБ -6.44 дБ 3:20 11-Accent (feat. Glorilla) DR4 -0.01 дБ -6.12 дБ 3:36 12-Paper Together (feat. Ugk) DR3 -0.01 дБ -4.60 дБ 3:08 13-Spin (feat. Victoria Monét) DR5 -0.01 дБ -6.91 дБ 2:44 14-Down Stairs DJ DR5 -0.01 дБ -5.37 дБ 2:38 15-Miami Blue (feat. Big K.R.I.T. & Buddah Bless) DR6 -0.01 дБ -7.34 дБ 2:19 16-Worthy DR5 -0.01 дБ -6.95 дБ 2:48 17-Moody Girl DR4 -0.01 дБ -7.10 дБ 2:49 18-Cobra -------------------------------------------------------------------------------- Количество треков: 18 Реальные значения DR: DR4 Частота: 44100 Гц Каналов: 2 Разрядность: 24 Битрейт: 1486 кбит/с Кодек: FLAC ================================================================================
Время раздачи: 24/7 (минимум до появления первых 3-5 скачавших, на раздачи не возвращаюсь) Первое правило участника файлообмена: "Скачал сам - дай скачать другому!"

Всего файлов в раздаче: 19 
01. HISS.flac36.56 MB
02. Rattle.flac38.97 MB
03. Figueroa.flac27.41 MB
04. Where Them Girls At.flac36.71 MB
05. Broke His Heart.flac32.56 MB
06. B.A.S. (feat. Kyle Richh).flac39.69 MB
07. Otaku Hot Girl.flac30.88 MB
08. Find Out.flac31.90 MB
09. BOA.flac29.53 MB
10. Mamushi (feat. Yuki Chiba).flac29.86 MB
Показать все файлы

Комментарии


Зарегистрируйтесь чтобы добавить комментарий
Торрент клиент
byTorrent - программа для загрузки торрент-файлов.

Скачать byTorrent.exe (1,5 МБ)

Скачать byTorrent.zip (0,6 МБ)

Поддержи torrent.by
российских рублей
(300 российских рублей это 4$)

Обратная связь rss

End game ©