↑↓torrent.by
Поиск
Логин:  Регистрация
Пароль:

Неукротимая страсть / Heaven in Hell (2023) WEB-DLRip-AVC от DoMiNo & селезень | D | Марафон

download Скачать торрент-файл   magnet Магнитная ссылка Размер: 1.78 GB Добавлен: 2024-07-02 05:00
Пиры будут получены из сети DHT
Последний сидер был замечен 2024-07-21 21:31
Информация о фильме Название: Неукротимая страсть Оригинальное название: Heaven in Hell Год выхода: 2023 Жанр: Драма, мелодрама Режиссер: Томаш Мандес В ролях: Магдалена Бочарска, Симоне Сузинна, Катажина Савчук, Януш Хабёр, Себастьян Фабияньский, Эльзбета Яросик, Катажина Квятковска, Моника Фрачек, Борис Язницки, Марта Добецка Описание: Макс — молодой итальянец, предпочитающий жить моментом. Однажды он решает помочь другу с судебным разбирательством и знакомится с Ольгой — судьей, которая должна решить судьбу товарища. Между Максом и Ольгой пропасть в 15 лет, но это не мешает двум страстным сердцам открыться друг другу. Кажется, возраст любви не помеха, но ситуация осложняется, когда Макс выясняет, что его девушка Майя — дочь Ольги. Как только мать и дочь узнают, что делят одного мужчину, катастрофы не избежать. Страна: Польша Студия: Ekipa, Monolith Films Продолжительность: 01:59:40 Перевод: Профессиональный (полное дублирование) | Марафон Файл Формат: Matroska Качество: WEB-DLRip-AVC Видео: 1024x426 at 25.000 fps, x264@L4.1, ~1749 kbps Аудио: AC3, 6 ch, ~384 kbps - | Русский | Субтитры: Отсутствуют ***Рип от: -=DoMiNo=-
[+] M/IGeneral Unique ID : 82414778610194126266659900912702792754 (0x3E00824DBA7A8A4A25B7E2D913432432) Complete name : T:Heaven.in.Hell.2023.DUB.WEB-DLRip.x264.seleZen.mkv Format : Matroska Format version : Version 4 File size : 1.78 GiB Duration : 1 h 59 min Overall bit rate : 2 135 kb/s Frame rate : 25.000 FPS Movie name : Heaven.in.Hell.2023.DUB.WEB-DLRip.x264.seleZen Encoded date : 2024-07-01 20:11:26 UTC Writing application : mkvmerge v85.0 ('Shame For You') 64-bit Writing library : libebml v1.4.5 + libmatroska v1.7.1 Cover : Yes Attachments : cover.jpg / small_cover.jpg Video ID : 1 Format : AVC Format/Info : Advanced Video Codec Format profile : High@L4.1 Format settings : CABAC / 10 Ref Frames Format settings, CABAC : Yes Format settings, Reference : 10 frames Codec ID : V_MPEG4/ISO/AVC Duration : 1 h 59 min Bit rate : 1 749 kb/s Width : 1 024 pixels Height : 426 pixels Display aspect ratio : 2.40:1 Frame rate mode : Constant Frame rate : 25.000 FPS Color space : YUV Chroma subsampling : 4:2:0 Bit depth : 8 bits Scan type : Progressive Bits/(Pixel*Frame) : 0.160 Stream size : 1.46 GiB (82%) Title : -=DoMiNo=- Writing library : x264 core 164 r3191 -DoMiNo Encoding settings : cabac=1 / ref=10 / deblock=1:-2:-1 / analyse=0x3:0x133 / me=umh / subme=10 / psy=1 / psy_rd=1.05:0.15 / mixed_ref=1 / me_range=32 / chroma_me=1 / trellis=2 / 8x8dct=1 / cqm=0 / deadzone=21,11 / fast_pskip=0 / chroma_qp_offset=-3 / threads=13 / lookahead_threads=3 / sliced_threads=0 / nr=0 / decimate=1 / interlaced=0 / bluray_compat=0 / constrained_intra=0 / bframes=12 / b_pyramid=2 / b_adapt=2 / b_bias=0 / direct=3 / weightb=1 / open_gop=0 / weightp=2 / keyint=240 / keyint_min=24 / scenecut=40 / intra_refresh=0 / rc_lookahead=60 / rc=crf / mbtree=0 / crf=18.0 / qcomp=0.60 / qpmin=0 / qpmax=69 / qpstep=4 / vbv_maxrate=50000 / vbv_bufsize=62500 / crf_max=0.0 / nal_hrd=none / filler=0 / ip_ratio=1.40 / pb_ratio=1.30 / aq=3:0.90 Language : English Default : Yes Forced : No Color range : Limited Color primaries : BT.709 Transfer characteristics : BT.709 Matrix coefficients : BT.709 Audio ID : 2 Format : AC-3 Format/Info : Audio Coding 3 Commercial name : Dolby Digital Codec ID : A_AC3 Duration : 1 h 59 min Bit rate mode : Constant Bit rate : 384 kb/s Channel(s) : 6 channels Channel layout : L R C LFE Ls Rs Sampling rate : 48.0 kHz Frame rate : 31.250 FPS (1536 SPF) Compression mode : Lossy Stream size : 329 MiB (18%) Title : Dub -Марафон Language : Russian Service kind : Complete Main Default : Yes Forced : No Dialog Normalization : -24 dB compr : -0.28 dB cmixlev : -3.0 dB surmixlev : -3 dB mixlevel : 285 dB roomtyp : 3 ltrtcmixlev : -3.0 dB ltrtsurmixlev : -3.0 dB lorocmixlev : -3.0 dB lorosurmixlev : -4.5 dB dialnorm_Average : -24 dB dialnorm_Minimum : -24 dB dialnorm_Maximum : -24 dB Menu 00:00:00.000 : en:Chapter 01 00:05:50.000 : en:Chapter 02 00:11:40.000 : en:Chapter 03 00:17:30.000 : en:Chapter 04 00:23:20.000 : en:Chapter 05 00:29:10.000 : en:Chapter 06 00:35:00.000 : en:Chapter 07 00:40:50.000 : en:Chapter 08 00:46:40.000 : en:Chapter 09 00:52:30.000 : en:Chapter 10 00:58:20.000 : en:Chapter 11 01:04:10.000 : en:Chapter 12 01:10:00.000 : en:Chapter 13 01:15:50.000 : en:Chapter 14 01:21:40.000 : en:Chapter 15 01:27:30.000 : en:Chapter 16 01:33:20.000 : en:Chapter 17 01:39:10.000 : en:Chapter 18 01:45:00.000 : en:Chapter 19 01:50:50.000 : en:Chapter 20 01:56:40.000 : en:Chapter 21
Релиз: Присоединяйся к: Кликай на баннеры.

Всего файлов в раздаче: 1 
Heaven.in.Hell.2023.DUB.WEB-DLRip.x264.seleZen.mkv1.78 GB

Похожие раздачи по запросу - Неукротимая
2024-07-02 magnet Неукротимая страсть / Heaven in Hell (2023) WEB-DLRip от MegaPeer | D 1.46 GB ↑ 0 ↓ 0
2024-07-01 magnet Неукротимая страсть / Heaven in Hell (2023) WEB-DL 1080p | D 5.03 GB ↑ 0 ↓ 1
2024-03-29 magnet Неукротимая Неупокоева [S01] (2022) WEBRip от Files-x 5.32 GB ↑ 0 ↓ 0
2024-03-29 magnet Неукротимая Неупокоева / Серии: 1-8 из 8 [2022, детектив, WEBRip-AVC] от Aleksan55 5.33 GB ↑ 0 ↓ 0

Комментарии


Зарегистрируйтесь чтобы добавить комментарий
Торрент клиент
byTorrent - программа для загрузки торрент-файлов.

Скачать byTorrent.exe (1,5 МБ)

Скачать byTorrent.zip (0,6 МБ)

Поддержи torrent.by
российских рублей
(300 российских рублей это 4$)

Обратная связь rss

End game ©