↑↓torrent.by
Поиск
Логин:  Регистрация
Пароль:

Camila Cabello - C,XOXO [24-bit Hi-Res] (2024) FLAC

download Скачать торрент-файл   magnet Магнитная ссылка Размер: 365.13 MB Добавлен: 2024-07-02 05:00
Пиры будут получены из сети DHT
Последний сидер был замечен вчера в 00:22
Название: C,XOXO Исполнитель: Camila Cabello Год: 2024 Жанр: Pop, Latin Издатель (лейбл): Geffen - Interscope Records Продолжительность: 00:32:23 Формат/Кодек: FLAC Тип рипа: Tracks Битрейт аудио: Lossless Разрядность: 24 Bit/44,1 kHz
[+] Трек-лист 01. I Luv It (00:02:55) 02. Chanel No.5 (00:02:41) 03. Pink Xoxo (00:00:55) 04. He Knows (00:03:02) 05. Twentysomethings (00:02:42) 06. Dade County Dreaming (00:02:40) 07. Koshi Xoxo (00:00:47) 08. Hot Uptown (00:02:31) 09. Uuugly (00:01:56) 10. Dream-Girls (00:02:52) 11. 305tilidie (00:00:50) 12. B.O.A.T. (00:02:57) 13. Pretty When I Cry (00:02:35) 14. June Gloom (00:03:00)
[+] DRM foobar2000 1.5.5 / Замер динамического диапазона (DR) 1.1.1 ------------------------------------------------------------------------------- Анализ: Camila Cabello / C,Xoxo (1-13) Drake / C,Xoxo (14) -------------------------------------------------------------------------------- DR Пики RMS Продолжительность трека -------------------------------------------------------------------------------- DR3 -0.20 дБ -5.28 дБ 2:55 01-I Luv It DR6 -0.20 дБ -7.94 дБ 2:41 02-Chanel No.5 DR6 -0.20 дБ -9.57 дБ 0:55 03-Pink Xoxo DR5 -0.20 дБ -7.17 дБ 3:02 04-He Knows DR7 -0.20 дБ -10.42 дБ 2:42 05-Twentysomethings DR4 -0.20 дБ -5.98 дБ 2:40 06-Dade County Dreaming DR10 -1.71 дБ -13.77 дБ 0:47 07-Koshi Xoxo DR4 -0.20 дБ -5.82 дБ 2:31 08-Hot Uptown DR6 -0.20 дБ -8.69 дБ 2:52 10-Dream-Girls DR11 -0.21 дБ -14.24 дБ 0:50 11-305tilidie DR7 -0.20 дБ -10.17 дБ 2:57 12-B.O.A.T. DR5 -0.20 дБ -7.22 дБ 2:35 13-Pretty When I Cry DR6 -0.20 дБ -9.49 дБ 3:00 14-June Gloom DR9 -0.21 дБ -12.74 дБ 1:56 09-Uuugly -------------------------------------------------------------------------------- Количество треков: 14 Реальные значения DR: DR7 Частота: 44100 Гц Каналов: 2 Разрядность: 24 Битрейт: 1456 кбит/с Кодек: FLAC ================================================================================
Время раздачи: 24/7 (минимум до появления первых 3-5 скачавших, на раздачи не возвращаюсь) Первое правило участника файлообмена: "Скачал сам - дай скачать другому!"

Всего файлов в раздаче: 15 
01. I LUV IT.flac35.01 MB
02. Chanel No.5.flac30.78 MB
03. pink xoxo.flac9.98 MB
04. HE KNOWS.flac35.29 MB
05. Twentysomethings.flac29.44 MB
06. Dade County Dreaming.flac29.62 MB
07. koshi xoxo.flac8.02 MB
08. HOT UPTOWN.flac28.91 MB
09. Uuugly.flac20.21 MB
10. DREAM-GIRLS.flac33.75 MB
Показать все файлы

Похожие раздачи по запросу - Camila
2024-07-01 magnet Camila Cabello - C,XOXO (2024) MP3 75.21 MB ↑ 0 ↓ 0

Комментарии


Зарегистрируйтесь чтобы добавить комментарий
Торрент клиент
byTorrent - программа для загрузки торрент-файлов.

Скачать byTorrent.exe (1,5 МБ)

Скачать byTorrent.zip (0,6 МБ)

Поддержи torrent.by
российских рублей
(300 российских рублей это 4$)

Обратная связь rss

End game ©