↑↓torrent.by
Поиск
Логин:  Регистрация
Пароль:

Бал сумасшедших / Captives / Party of Fools (2023) WEB-DLRip от New-Team | D | Локализованная версия

download Скачать торрент-файл   magnet Магнитная ссылка Размер: 1.46 GB Добавлен: 2024-07-02 05:00
Пиры будут получены из сети DHT
Последний сидер был замечен 2024-07-14 21:40
Бал сумасшедших / Captives / Party of Fools Год выпуска: 2023 Выпущено: Франция / Canal+ , Ciné, Cinéaxe 4, Cinémage 17, Cofimage 34, Elle Driver, France 2 Cinéma, France Télévision, Pictanova, Prélude, Région Hauts-de-France, Région Ile-de-France, Région Normandie, Sacem, Wild Bunch Жанр: триллер, драма Режиссер: Арно де Пальер / Arnaud des Pallières В ролях: Мелани Тьерри, Жозиан Баласко, Иоланда Моро, Марина Фоис, Кароль Буке, Мисс Минг, Доминик Фро, Агнес Бертон, Люси Чжан, Элина Ловенсон О фильме: Раз в году в психиатрической больнице проводится популярное у всего Парижа мероприятие. Политики, деятели искусства и светские гости толпятся перед дверями этого заведения, жаждущие оказаться в красочной толпе «безумных женщин». Но в этот раз среди них Фанни, а «бал сумасшедших» для неё — единственный шанс найти и спасти свою мать. Продолжительность: 01:50:53 Перевод: Профессиональный (полное дублирование) | CPI Films Субтитры: Русские (forced (hardsub)) Раздача от : Формат: AVI Качество: WEB-DLRip Видео: 720x304 (2.35:1), 24,000 fps, XviD MPEG-4 ~ 1495 kbps avg, 0.285 bit/pixel, build 73 Аудио: 48 kHz, AC3 Dolby Digital, 3/2 (L,C,R,l,r) + LFE ch, ~ 384 kbps | RUS |
[+] MediaInfoОбщее Полное имя : D:TorrentsCaptives.2023.WEB-DLRip_от New-Team.avi Формат : AVI Формат/Информация : Audio Video Interleave Размер файла : 1,46 Гбайт Продолжительность : 1 ч. 50 м. Общий поток : 1 888 Кбит/сек Программа кодирования : VirtualDubMod 1.5.10.2 (build 2540/release) Библиотека кодирования : VirtualDubMod build 2540/release Видео Идентификатор : 0 Формат : MPEG-4 Visual Профиль формата : Advanced Simple@L5 Настройки формата : BVOP1 / Custom Matrix Параметр BVOP формата : 1 Параметр QPel формата : Нет Параметр GMC формата : Без точки перехода Параметр матрицы формата : Выборочная Идентификатор кодека : XVID Идентификатор кодека/Подсказка : XviD Продолжительность : 1 ч. 50 м. Битрейт : 1 495 Кбит/сек Ширина : 720 пикселей Высота : 304 пикселя Соотношение сторон : 2,35:1 Частота кадров : 24,000 кадра/сек Цветовое пространство : YUV Субдискретизация насыщенности : 4:2:0 Битовая глубина : 8 бит Тип развёртки : Прогрессивная Метод сжатия : С потерями Бит/(Пиксели*Кадры) : 0.285 Размер потока : 1,16 Гбайт (79%) Библиотека кодирования : XviD 73 Аудио Идентификатор : 1 Формат : AC-3 Формат/Информация : Audio Coding 3 Коммерческое название : Dolby Digital Идентификатор кодека : 2000 Продолжительность : 1 ч. 50 м. Вид битрейта : Постоянный Битрейт : 384 Кбит/сек Каналы : 6 каналов Channel layout : L R C LFE Ls Rs Частота : 48,0 КГц Частота кадров : 31,250 кадров/сек (1536 SPF) Метод сжатия : С потерями Размер потока : 305 Мбайт (20%) Выравнивание : Разделение по промежуткам Продолжительность промежутка : 42 мс. (1,00 видеокадр) Время предзагрузки промежутка : 500 мс. Service kind : Complete Main

Всего файлов в раздаче: 1 
Captives.2023.WEB-DLRip_от New-Team.avi1.46 GB

Похожие раздачи по запросу - Бал
2024-07-02 magnet Бал сумасшедших / Captives / Party of Fools (2023) WEB-DL 1080p | D 4.43 GB ↑ 0 ↓ 0
2024-07-02 magnet Бал сумасшедших / Captives / Party of Fools (2023) WEB-DLRip-AVC от DoMiNo & селезень | D | CPI Films | Локализованная версия 1.69 GB ↑ 0 ↓ 0
2024-07-01 magnet Бал сумасшедших / Captives (2023) WEB-DLRip от AR-Team | D 1.46 GB ↑ 0 ↓ 0

Комментарии


Зарегистрируйтесь чтобы добавить комментарий
Торрент клиент
byTorrent - программа для загрузки торрент-файлов.

Скачать byTorrent.exe (1,5 МБ)

Скачать byTorrent.zip (0,6 МБ)

Поддержи torrent.by
российских рублей
(300 российских рублей это 4$)

Обратная связь rss

End game ©