↑↓torrent.by
Поиск
Логин:  Регистрация
Пароль:

Нежить / In a Violent Nature (2024) WEB-DL 720p от селезень | P | HDRezka Studio

download Скачать торрент-файл   magnet Магнитная ссылка Размер: 2.94 GB Добавлен: 2024-07-02 05:00
Пиры будут получены из сети DHT
Последний сидер был замечен 2024-07-06 13:27
Информация о фильме Название: Нежить Оригинальное название: In a Violent Nature Год выпуска: 2024 Жанр: Ужасы Режиссер: Крис Нэш / Chris Nash В ролях: Райан Баррет, Андреа Павловиц, Камерон Лав, Рис Пресли, Лиам Леоне, Шарлотта Криган, Лиа Роуз Себастианис, Сэм Ролстон, Александр Оливер, Тимоти Пол О фильме: Группа отдыхавших на природе парней и девушек пробуждает к жизни беспощадное существо, заключенное в тело казненного много лет назад маньяка. Его нельзя убить, от него нельзя убежать, спрятаться или скрыться. Всех, кто встретит его на пути, ждет единственный смертельный исход. Как им справиться с неумолимым воплощением самого зла? Продолжительность: 01:33:53 Перевод: Профессиональный (многоголосый, закадровый) | HDRezka Studio Субтитры: Русские (Forced), Английские Файл Формат: Matroska Качество: WEB-DL 720p | AMZN Видео: 960x720 at 23.976 fps, MPEG-4 AVC, ~3655 kbps Аудио 1: AC3, 2 ch, ~192 kbps - | Русский | Аудио 2: E-AC3, 6 ch, ~640 kbps - | Английский | Формат субтитров: softsub (SRT)
[+] M/IGeneral Unique ID : 92544847667426864282541076021036926744 (0x459F7D44DF18C9B9AB02F2A4208B4718) Complete name : G:In.a.Violent.Nature.2024.AMZN.WEB-DL.720p.x264.seleZen.mkv Format : Matroska Format version : Version 4 File size : 2.94 GiB Duration : 1 h 33 min Overall bit rate : 4 489 kb/s Frame rate : 23.976 FPS Movie name : In.a.Violent.Nature.2024.AMZN.WEB-DL.720p.x264.seleZen Encoded date : 2024-07-01 12:14:47 UTC Writing application : mkvmerge v85.0 ('Shame For You') 64-bit Writing library : libebml v1.4.5 + libmatroska v1.7.1 Cover : Yes Attachments : cover.jpg / small_cover.jpg Video ID : 1 Format : AVC Format/Info : Advanced Video Codec Format profile : High@L3.1 Format settings : CABAC / 4 Ref Frames Format settings, CABAC : Yes Format settings, Reference : 4 frames Codec ID : V_MPEG4/ISO/AVC Duration : 1 h 33 min Bit rate mode : Constant Bit rate : 3 655 kb/s Nominal bit rate : 4 000 kb/s Width : 960 pixels Height : 720 pixels Display aspect ratio : 4:3 Frame rate mode : Constant Frame rate : 23.976 (24000/1001) FPS Color space : YUV Chroma subsampling : 4:2:0 Bit depth : 8 bits Scan type : Progressive Bits/(Pixel*Frame) : 0.221 Stream size : 2.40 GiB (81%) Title : -=DoMiNo=- Language : English Default : Yes Forced : No Color range : Limited Color primaries : BT.709 Transfer characteristics : BT.709 Matrix coefficients : BT.709 Audio #1 ID : 2 Format : AC-3 Format/Info : Audio Coding 3 Commercial name : Dolby Digital Codec ID : A_AC3 Duration : 1 h 33 min Bit rate mode : Constant Bit rate : 192 kb/s Channel(s) : 2 channels Channel layout : L R Sampling rate : 48.0 kHz Frame rate : 31.250 FPS (1536 SPF) Compression mode : Lossy Stream size : 129 MiB (4%) Title : MVO -HDRezka Language : Russian Service kind : Complete Main Default : Yes Forced : No Dialog Normalization : -31 dB dialnorm_Average : -31 dB dialnorm_Minimum : -31 dB dialnorm_Maximum : -31 dB Audio #2 ID : 3 Format : E-AC-3 Format/Info : Enhanced AC-3 Commercial name : Dolby Digital Plus Codec ID : A_EAC3 Duration : 1 h 33 min Bit rate mode : Constant Bit rate : 640 kb/s Channel(s) : 6 channels Channel layout : L R C LFE Ls Rs Sampling rate : 48.0 kHz Frame rate : 31.250 FPS (1536 SPF) Compression mode : Lossy Stream size : 430 MiB (14%) Title : Canadian Language : English Service kind : Complete Main Default : No Forced : No Dialog Normalization : -31 dB compr : -0.28 dB dialnorm_Average : -31 dB dialnorm_Minimum : -31 dB dialnorm_Maximum : -31 dB Text #1 ID : 4 Format : UTF-8 Codec ID : S_TEXT/UTF8 Codec ID/Info : UTF-8 Plain Text Duration : 20 min 12 s Bit rate : 1 b/s Frame rate : 0.005 FPS Count of elements : 6 Stream size : 258 Bytes (0%) Title : Forced Language : Russian Default : No Forced : No Text #2 ID : 5 Format : UTF-8 Codec ID : S_TEXT/UTF8 Codec ID/Info : UTF-8 Plain Text Duration : 1 h 33 min Bit rate : 36 b/s Frame rate : 0.145 FPS Count of elements : 807 Stream size : 25.2 KiB (0%) Title : Canadian Language : English Default : No Forced : No Text #3 ID : 6 Format : UTF-8 Codec ID : S_TEXT/UTF8 Codec ID/Info : UTF-8 Plain Text Duration : 1 h 33 min Bit rate : 40 b/s Frame rate : 0.183 FPS Count of elements : 1028 Stream size : 27.9 KiB (0%) Title : Canadian (SDH) Language : English Default : No Forced : No Menu 00:00:00.000 : en:Scene 01 01:30:36.500 : en:End Credits
Релиз: Присоединяйся к: Кликай на баннеры.

Всего файлов в раздаче: 1 
In.a.Violent.Nature.2024.AMZN.WEB-DL.720p.x264.seleZen.mkv2.94 GB

Похожие раздачи по запросу - Нежить
2024-07-03 magnet Нежить / In a Violent Nature (2024) WEB-DL-HEVC 2160p | 4K | SDR | P, L 10.39 GB ↑ 0 ↓ 2
2024-07-02 magnet Нежить / In a Violent Nature (2024) WEB-DLRip от DoMiNo & селезень | P | HDRezka Studio 1.37 GB ↑ 0 ↓ 0
2024-07-02 magnet Нежить / In a Violent Nature (2024) WEB-DLRip-AVC | P | HDRezka Studio 1.46 GB ↑ 8 ↓ 0
2024-07-01 magnet Нежить / In a Violent Nature (2024) WEB-DL 1080p от New-Team | P | HDRezka Studio 6.57 GB ↑ 0 ↓ 0
2024-07-01 magnet Нежить / In a Violent Nature (2024) WEB-DLRip от New-Team | P | HDRezka Studio 1.46 GB ↑ 0 ↓ 0
2024-06-29 magnet Нежить / In a Violent Nature (2024) WEB-DLRip-AVC | L 1.46 GB ↑ 3 ↓ 0
2024-06-29 magnet Нежить / In a Violent Nature (2024) WEB-DLRip-AVC | L 1.39 GB ↑ 19 ↓ 0

Комментарии


Зарегистрируйтесь чтобы добавить комментарий
Торрент клиент
byTorrent - программа для загрузки торрент-файлов.

Скачать byTorrent.exe (1,5 МБ)

Скачать byTorrent.zip (0,6 МБ)

Поддержи torrent.by
российских рублей
(300 российских рублей это 4$)

Обратная связь rss

End game ©