↑↓torrent.by
Поиск
Логин:  Регистрация
Пароль:

Johnny Cash - Songwriter [24-bit Hi-Res] (2024) FLAC

download Скачать торрент-файл   magnet Магнитная ссылка Размер: 362.69 MB Добавлен: 2024-07-02 05:00
Пиры будут получены из сети DHT
Последний сидер был замечен 2024-07-11 16:01
Название: Songwriter Исполнитель: Johnny Cash Композитор: Johnny Cash Год: 2024 Жанр: Rock, Folk, World, Country Издатель (лейбл): Johnny Cash Продолжительность: 00:30:53 Формат/Кодек: FLAC Тип рипа: Tracks Битрейт аудио: Lossless Разрядность: 24 Bit/48 kHz
[+] Трек-лист 01. Hello Out There (00:03:03) 02. Spotlight (00:02:47) 03. Drive On (00:03:21) 04. I Love You Tonite (00:03:20) 05. Have You Ever Been To Little Rock? (00:02:43) 06. Well Alright (00:02:12) 07. She Sang Sweet Baby James (00:03:20) 08. Poor Valley Girl (00:02:16) 09. Soldier Boy (00:02:49) 10. Sing It Pretty Sue (00:02:17) 11. Like A Soldier (00:02:45)
[+] DRM foobar2000 1.5.5 / Замер динамического диапазона (DR) 1.1.1 ------------------------------------------------------------------------------- Анализ: Johnny Cash / Songwriter -------------------------------------------------------------------------------- DR Пики RMS Продолжительность трека -------------------------------------------------------------------------------- DR7 -0.82 дБ -11.47 дБ 3:03 01-Hello Out There DR8 -0.82 дБ -10.05 дБ 2:47 02-Spotlight DR9 -0.82 дБ -12.22 дБ 3:21 03-Drive On DR10 -0.82 дБ -12.01 дБ 3:20 04-I Love You Tonite DR8 -0.82 дБ -11.15 дБ 2:43 05-Have You Ever Been To Little Rock? DR9 -0.82 дБ -10.99 дБ 2:12 06-Well Alright DR9 -0.82 дБ -11.23 дБ 3:20 07-She Sang Sweet Baby James DR8 -0.82 дБ -10.02 дБ 2:16 08-Poor Valley Girl DR8 -0.82 дБ -9.93 дБ 2:49 09-Soldier Boy DR9 -0.82 дБ -10.69 дБ 2:17 10-Sing It Pretty Sue DR9 -0.82 дБ -10.27 дБ 2:45 11-Like A Soldier -------------------------------------------------------------------------------- Количество треков: 11 Реальные значения DR: DR8 Частота: 48000 Гц Каналов: 2 Разрядность: 24 Битрейт: 1625 кбит/с Кодек: FLAC ================================================================================
Время раздачи: 24/7 (минимум до появления первых 3-5 скачавших, на раздачи не возвращаюсь) Первое правило участника файлообмена: "Скачал сам - дай скачать другому!"

Всего файлов в раздаче: 12 
01. Hello Out There.flac35.39 MB
02. Spotlight.flac34.12 MB
03. Drive On.flac38.15 MB
04. I Love You Tonite.flac38.90 MB
05. Have You Ever Been To Little Rock.flac32.70 MB
06. Well Alright.flac25.41 MB
07. She Sang Sweet Baby James.flac40.01 MB
08. Poor Valley Girl.flac25.59 MB
09. Soldier Boy.flac33.65 MB
10. Sing It Pretty Sue.flac26.58 MB
Показать все файлы

Похожие раздачи по запросу - Johnny
2024-07-07 magnet Johnny Pallari - Second Coming (2024) MP3 74.08 MB ↑ 0 ↓ 0
2024-07-03 magnet Суперпташки. Улётная миссия / Johnny Puff: Secret Mission (2024) WEB-DL 1080p | D 3.46 GB ↑ 1 ↓ 3
2024-07-03 magnet Суперпташки. Улётная миссия / Johnny Puff: Secret Mission (2024) WEB-DLRip от MegaPeer | D 1.46 GB ↑ 1 ↓ 1
2024-06-30 magnet Johnny Cash - Songwriter (2024) MP3 73.60 MB ↑ 0 ↓ 0
2024-06-25 magnet Johnny Feel Good - Age Is Just A Number (2024) MP3 115.78 MB ↑ 0 ↓ 0
2024-06-20 magnet Красавчик Джонни / Johnny Handsome (1989) BDRemux 1080p | P, P2, A 17.97 GB ↑ 0 ↓ 0

Комментарии


Зарегистрируйтесь чтобы добавить комментарий
Торрент клиент
byTorrent - программа для загрузки торрент-файлов.

Скачать byTorrent.exe (1,5 МБ)

Скачать byTorrent.zip (0,6 МБ)

Поддержи torrent.by
российских рублей
(300 российских рублей это 4$)

Обратная связь rss

End game ©