↑↓torrent.by
Поиск
Логин:  Регистрация
Пароль:

Neil Young - Early Daze [24-bit Hi-Res] (2024) FLAC

download Скачать торрент-файл   magnet Магнитная ссылка Размер: 1.43 GB Добавлен: 2024-07-02 05:00
Пиры будут получены из сети DHT
Последний сидер был замечен 2024-07-10 02:34
Название: Early Daze Исполнитель: Neil Young, Crazy Horse Год: 2024 Жанр: Rock Издатель (лейбл): Reprise Продолжительность: 00:38:42 Формат/Кодек: FLAC Тип рипа: Tracks Битрейт аудио: Lossless Разрядность: 24 Bit/192 kHz
[+] Трек-лист 01. Dance Dance Dance (00:02:36) 02. Come On Baby Let's Go Downtown (00:04:13) 03. Winterlong (00:03:40) 04. Everybody's Alone (00:02:32) 05. Wonderin' (00:02:19) 06. Cinnamon Girl (00:03:02) 07. Look At All The Things (00:02:59) 08. Helpless (00:04:39) 09. Birds (00:03:38) 10. Down By The River (00:09:04)
[+] DRM foobar2000 1.5.5 / Замер динамического диапазона (DR) 1.1.1 -------------------------------------------------------------------------------- Анализ: Neil Young / Early Daze -------------------------------------------------------------------------------- DR Пики RMS Продолжительность трека -------------------------------------------------------------------------------- DR13 0.00 дБ -15.10 дБ 2:36 01-Dance Dance Dance DR11 -1.90 дБ -15.11 дБ 4:13 02-Come On Baby Let's Go Downtown DR12 -0.59 дБ -14.95 дБ 3:40 03-Winterlong DR11 -4.15 дБ -16.28 дБ 2:32 04-Everybody's Alone DR11 -4.74 дБ -17.77 дБ 2:19 05-Wonderin' DR10 -2.67 дБ -15.42 дБ 3:02 06-Cinnamon Girl DR11 -1.79 дБ -14.81 дБ 2:59 07-Look At All The Things DR12 -3.35 дБ -17.99 дБ 4:39 08-Helpless DR11 -4.36 дБ -18.90 дБ 3:38 09-Birds DR12 -1.07 дБ -16.13 дБ 9:04 10-Down By The River -------------------------------------------------------------------------------- Количество треков: 10 Реальные значения DR: DR11 Частота: 192000 Гц Каналов: 2 Разрядность: 24 Битрейт: 5459 кбит/с Кодек: FLAC ================================================================================
Время раздачи: 24/7 (минимум до появления первых 3-5 скачавших, на раздачи не возвращаюсь) Первое правило участника файлообмена: "Скачал сам - дай скачать другому!"

Всего файлов в раздаче: 11 
01. Dance Dance Dance.flac98.91 MB
02. Come On Baby Let's Go Downtown.flac160.27 MB
03. Winterlong.flac142.14 MB
04. Everybody's Alone.flac93.43 MB
05. Wonderin'.flac84.63 MB
06. Cinnamon Girl.flac117.52 MB
07. Look At All the Things.flac113.79 MB
08. Helpless.flac169.60 MB
09. Birds.flac132.00 MB
10. Down By the River.flac354.13 MB
Показать все файлы

Похожие раздачи по запросу - Neil
2024-07-04 magnet Neil Sadler - Past To Present (2024) MP3 133.59 MB ↑ 0 ↓ 0
2024-07-02 magnet Neil Diamond - 12 Songs [Deluxe Edition] (2005/2024) MP3 263.93 MB ↑ 0 ↓ 0
2024-07-02 magnet Neil Diamond - 12 Songs [24-bit Hi-Res, Deluxe Edition] (2005/2024) FLAC 1.16 GB ↑ 0 ↓ 0
2024-07-01 magnet Neil Young - Early Daze (2024) MP3 89.59 MB ↑ 0 ↓ 0
2024-05-23 magnet Neil Young - Roskilde Festival (2024) FLAC 952.78 MB ↑ 0 ↓ 0

Комментарии


Зарегистрируйтесь чтобы добавить комментарий
Торрент клиент
byTorrent - программа для загрузки торрент-файлов.

Скачать byTorrent.exe (1,5 МБ)

Скачать byTorrent.zip (0,6 МБ)

Поддержи torrent.by
российских рублей
(300 российских рублей это 4$)

Обратная связь rss

End game ©