↑↓torrent.by
Поиск
Логин:  Регистрация
Пароль:

Как починить велосипед (2022) WEBRip 1080p

download Скачать торрент-файл   magnet Магнитная ссылка Размер: 2.48 GB Добавлен: 2024-07-02 11:00
Пиры будут получены из сети DHT
Последний сидер был замечен 2024-07-02 11:00
Информация о фильме Оригинальное название: Как починить велосипед Год выпуска: 2022 Жанр: драма Выпущено: Россия / Sanaa Cinema Режиссер: Эр Санаа Ох-Хотор В ролях: Вадим Саввинов, Айсен Федоров, Валерий Андросов, Аким Федоров, Афанасий Лугинов, Дархан Торговкин Описание: Мальчик Сарыал, сломав велосипед, боится, что его накажут. Он убегает из дома и попадает в неожиданные приключения. Продолжительность: 01:04:43 Субтитры: Русские (hardsub) Файл Формат: MKV Качество: WEBRip 1080p Видео: AVC/H.264, 1920x800, ~5000 Kbps Аудио 1: AC3, 2 ch, 256 Kbps Аудио 2: E-AC3, 2 ch, 256 Kbps
[+] MediaInfo:General Unique ID : 62973251600855546385109703069329970027 (0x2F60350433739F1A40D4EE8303D2D36B) Complete name : Kak.pochinit'.velosiped.2022.WEB-DL.1080p.mkv Format : Matroska Format version : Version 4 File size : 2.48 GiB Duration : 1 h 4 min Overall bit rate : 5 482 kb/s Encoded date : UTC 2024-07-01 13:11:30 Writing application : mkvmerge v75.0.0 ('Goliath') 64-bit Writing library : libebml v1.4.4 + libmatroska v1.7.1 Video ID : 1 Format : AVC Format/Info : Advanced Video Codec Format profile : High@L4 Format settings : CABAC / 3 Ref Frames Format settings, CABAC : Yes Format settings, Reference frames : 3 frames Codec ID : V_MPEG4/ISO/AVC Duration : 1 h 4 min Bit rate : 5 000 kb/s Width : 1 920 pixels Height : 800 pixels Display aspect ratio : 2.40:1 Frame rate mode : Constant Frame rate : 24.000 FPS Color space : YUV Chroma subsampling : 4:2:0 Bit depth : 8 bits Scan type : Progressive Bits/(Pixel*Frame) : 0.136 Stream size : 2.25 GiB (91%) Title : Как починить велосипед (2022) WEB-DL 1080p Writing library : x264 core 164 r3095 baee400 Encoding settings : cabac=1 / ref=4 / deblock=1:-1:-1 / analyse=0x3:0x133 / me=umh / subme=9 / psy=1 / psy_rd=0.40:1.00 / mixed_ref=1 / me_range=24 / chroma_me=1 / trellis=0 / 8x8dct=1 / cqm=0 / deadzone=21,11 / fast_pskip=1 / chroma_qp_offset=-2 / threads=3 / lookahead_threads=1 / sliced_threads=0 / nr=0 / decimate=1 / interlaced=0 / bluray_compat=0 / stitchable=1 / constrained_intra=0 / bframes=8 / b_pyramid=1 / b_adapt=0 / b_bias=0 / direct=3 / weightb=1 / open_gop=0 / weightp=2 / keyint=72 / keyint_min=37 / scenecut=0 / intra_refresh=0 / rc_lookahead=40 / rc=2pass / mbtree=1 / bitrate=5000 / ratetol=1.0 / qcomp=0.80 / qpmin=1 / qpmax=69 / qpstep=4 / cplxblur=20.0 / qblur=0.5 / vbv_maxrate=7500 / vbv_bufsize=10000 / nal_hrd=none / filler=0 / ip_ratio=1.40 / aq=1:1.00 Language : Russian Default : Yes Forced : No Color range : Limited Color primaries : BT.709 Transfer characteristics : BT.709 Matrix coefficients : BT.709 Audio #1 ID : 2 Format : AC-3 Format/Info : Audio Coding 3 Commercial name : Dolby Digital Codec ID : A_AC3 Duration : 1 h 4 min Bit rate mode : Constant Bit rate : 256 kb/s Channel(s) : 2 channels Channel layout : L R Sampling rate : 48.0 kHz Frame rate : 31.250 FPS (1536 SPF) Compression mode : Lossy Stream size : 119 MiB (5%) Language : Russian Service kind : Complete Main Default : No Forced : No Audio #2 ID : 3 Format : E-AC-3 Format/Info : Enhanced AC-3 Commercial name : Dolby Digital Plus Codec ID : A_EAC3 Duration : 1 h 4 min Bit rate mode : Constant Bit rate : 256 kb/s Channel(s) : 2 channels Channel layout : L R Sampling rate : 48.0 kHz Frame rate : 31.250 FPS (1536 SPF) Compression mode : Lossy Stream size : 119 MiB (5%) Language : Russian Service kind : Complete Main Default : No Forced : No
[+] Скриншоты

Всего файлов в раздаче: 1 
Kak.pochinit'.velosiped.2022.WEB-DL.1080p.mkv2.48 GB

Похожие раздачи по запросу - Как
2024-07-14 magnet Мыслить как преступник / Criminal Minds [17x01-07 из 10] (2024) WEB-DL 1080p от Jaskier | P 15.28 GB ↑ 0 ↓ 3
2024-07-11 magnet Как выйти замуж за сантехника [01-04 из 04] (2021) WEB-DL 1080p 4.96 GB ↑ 0 ↓ 0
2024-07-11 magnet Гол 2: Жизнь как мечта / Goal II: Living the Dream (2007) WEB-DL 1080p | D, P | Open Matte | Локализованный видеоряд 5.07 GB ↑ 0 ↓ 0
2024-07-09 magnet Николя Денешо - The Last of Us. Как серия исследует человеческую природу и дарит неповторимый игровой опыт (2024) FB2 4.24 MB ↑ 0 ↓ 0
2024-07-07 magnet Зубы, как у акулы / Denti da squalo (2023) BDRip 1080p | L | Синема УС 7.83 GB ↑ 0 ↓ 1
2024-07-07 magnet Мыслить как преступник / Criminal Minds [17x01-06 из 10] (2024) WEB-DL 1080p от Jaskier | P 12.84 GB ↑ 0 ↓ 0
2024-07-01 magnet Как починить велосипед (2022) WEB-DLRip от AR-Team 746.66 MB ↑ 0 ↓ 0

Комментарии


Зарегистрируйтесь чтобы добавить комментарий
Торрент клиент
byTorrent - программа для загрузки торрент-файлов.

Скачать byTorrent.exe (1,5 МБ)

Скачать byTorrent.zip (0,6 МБ)

Поддержи torrent.by
российских рублей
(300 российских рублей это 4$)

Обратная связь rss

End game ©