↑↓torrent.by
Поиск
Логин:  Регистрация
Пароль:

Шеф под прикрытием / High Heat (2022) BDRip 720p от DoMiNo & селезень | D

download Скачать торрент-файл   magnet Магнитная ссылка Размер: 4.26 GB Добавлен: 2024-07-02 11:00
Пиры будут получены из сети DHT
Последний сидер был замечен 2024-07-02 19:21
Информация о фильме Название: Шеф под прикрытием Оригинальное название: High Heat Год выхода: 2022 Жанр: Боевик, комедия, криминал Режиссер: Зак Голден В ролях: Ольга Куриленко, Крис Диамантополос, Дон Джонсон, Кэйтлин Даблдэй, Даллас Пейдж, Бьянка Д’Амброзио, Кьяра Д’Амброзио О фильме: Шеф-повар ресторана Ана вынуждена защищаться от местной мафии, которая хочет сжечь ее заведение. Нож становится ее главным оружием не только на кухне, но и за ее пределами. Страна: США Студия: BondIt, Buffalo 8 Productions, Lucky 13 Productions, Yale Productions Продолжительность: 01:24:10 Перевод: Дублированный | Позитив (Кинопоиск HD) Субтитры: Русские (Full), английские, французские Файл Формат: Matroska Качество: BDRip 720p Видео: 1280x536 at 23.976 fps, x264@L4.1, ~6157 kbps Аудио 1: AC3, 6 ch, ~448 kbps - | Русский | Аудио 2: AC3, 6 ch, ~640 kbps - | Английский | Формат субтитров: softsub (SRT) ***Рип от: -=DoMiNo=-
[+] M/Ix264 : frame I:892 Avg QP:16.34 size:102154 x264 : frame P:23730 Avg QP:17.60 size: 55407 x264 : frame B:96475 Avg QP:19.54 size: 25719 General Unique ID : 109048039928075584303170654616650476267 (0x5209E377D80494EF5415E44624176AEB) Complete name : H:High.Heat.2022.BDRip.720p.x264.seleZen.mkv Format : Matroska Format version : Version 4 File size : 4.26 GiB Duration : 1 h 24 min Overall bit rate : 7 248 kb/s Movie name : High.Heat.2022.BDRip.720p.x264.seleZen Encoded date : UTC 2023-04-20 22:28:06 Writing application : mkvmerge v75.0.0 ('Goliath') 64-bit Writing library : libebml v1.4.4 + libmatroska v1.7.1 Cover : Yes Attachments : cover.jpg / small_cover.jpg Video ID : 1 Format : AVC Format/Info : Advanced Video Codec Format profile : High@L4.1 Format settings : CABAC / 12 Ref Frames Format settings, CABAC : Yes Format settings, Reference : 12 frames Codec ID : V_MPEG4/ISO/AVC Duration : 1 h 24 min Bit rate : 6 157 kb/s Width : 1 280 pixels Height : 536 pixels Display aspect ratio : 2.40:1 Frame rate mode : Constant Frame rate : 23.976 (24000/1001) FPS Color space : YUV Chroma subsampling : 4:2:0 Bit depth : 8 bits Scan type : Progressive Bits/(Pixel*Frame) : 0.374 Stream size : 3.62 GiB (85%) Title : -=DoMiNo=- Writing library : x264 core 164 r3106+55M 24adf88 t_mod_New | by -=DoMiNo=- | X86_64] Encoding settings : cabac=1 / ref=12 / deblock=1:-2:-2 / analyse=0x3:0x133 / me=umh / subme=10 / psy=1 / fade_compensate=0.00 / psy_rd=1.02:0.03 / mixed_ref=1 / me_range=32 / chroma_me=1 / trellis=2 / 8x8dct=1 / cqm=0 / deadzone=21,11 / fast_pskip=0 / chroma_qp_offset=-3 / threads=17 / lookahead_threads=4 / sliced_threads=0 / nr=0 / decimate=0 / interlaced=0 / bluray_compat=0 / constrained_intra=0 / fgo=0 / bframes=11 / b_pyramid=2 / b_adapt=2 / b_bias=0 / direct=3 / weightb=1 / open_gop=0 / weightp=2 / keyint=240 / keyint_min=23 / scenecut=40 / intra_refresh=0 / rc_lookahead=60 / rc=crf / mbtree=0 / crf=18.8000 / qcomp=0.60 / qpmin=0:0:0 / qpmax=69:69:69 / qpstep=4 / vbv_maxrate=50000 / vbv_bufsize=62500 / crf_max=0.0 / nal_hrd=none / filler=0 / ip_ratio=1.35 / pb_ratio=1.25 / aq=3:0.90 / aq-sensitivity=10.00 / aq-factor=1.00:1.00:1.00 / aq2=0 / aq3=0 Language : English Default : Yes Forced : No Audio #1 ID : 2 Format : AC-3 Format/Info : Audio Coding 3 Commercial name : Dolby Digital Codec ID : A_AC3 Duration : 1 h 24 min Bit rate mode : Constant Bit rate : 448 kb/s Channel(s) : 6 channels Channel layout : L R C LFE Ls Rs Sampling rate : 48.0 kHz Frame rate : 31.250 FPS (1536 SPF) Compression mode : Lossy Stream size : 270 MiB (6%) Title : Dub Language : Russian Service kind : Complete Main Default : Yes Forced : Yes Audio #2 ID : 3 Format : AC-3 Format/Info : Audio Coding 3 Commercial name : Dolby Digital Codec ID : A_AC3 Duration : 1 h 24 min Bit rate mode : Constant Bit rate : 640 kb/s Channel(s) : 6 channels Channel layout : L R C LFE Ls Rs Sampling rate : 48.0 kHz Frame rate : 31.250 FPS (1536 SPF) Compression mode : Lossy Stream size : 385 MiB (9%) Title : Original Language : English Service kind : Complete Main Default : No Forced : No Text #1 ID : 4 Format : UTF-8 Codec ID : S_TEXT/UTF8 Codec ID/Info : UTF-8 Plain Text Duration : 1 h 17 min Bit rate : 111 b/s Frame rate : 0.257 FPS Count of elements : 1192 Stream size : 63.1 KiB (0%) Title : Full Language : Russian Default : No Forced : No Text #2 ID : 5 Format : UTF-8 Codec ID : S_TEXT/UTF8 Codec ID/Info : UTF-8 Plain Text Duration : 1 h 17 min Bit rate : 60 b/s Frame rate : 0.257 FPS Count of elements : 1192 Stream size : 34.1 KiB (0%) Title : Full Language : English Default : No Forced : No Text #3 ID : 6 Format : UTF-8 Codec ID : S_TEXT/UTF8 Codec ID/Info : UTF-8 Plain Text Duration : 1 h 21 min Bit rate : 64 b/s Frame rate : 0.280 FPS Count of elements : 1363 Stream size : 38.6 KiB (0%) Title : SDH Language : English Default : No Forced : No Text #4 ID : 7 Format : UTF-8 Codec ID : S_TEXT/UTF8 Codec ID/Info : UTF-8 Plain Text Duration : 1 h 21 min Bit rate : 52 b/s Frame rate : 0.228 FPS Count of elements : 1109 Stream size : 31.5 KiB (0%) Title : Full Language : French Default : No Forced : No Menu 00:00:00.000 : en:Chapter 01 00:08:09.864 : en:Chapter 02 00:14:51.974 : en:Chapter 03 00:21:44.303 : en:Chapter 04 00:28:40.385 : en:Chapter 05 00:35:35.717 : en:Chapter 06 00:44:01.222 : en:Chapter 07 00:52:16.383 : en:Chapter 08 00:59:36.364 : en:Chapter 09 01:07:13.696 : en:Chapter 10 01:11:41.047 : en:Chapter 11 01:18:18.068 : en:Chapter 12
Релиз: Присоединяйся к: Кликай на баннеры.

Всего файлов в раздаче: 1 
High.Heat.2022.BDRip.720p.x264.seleZen.mkv4.26 GB

Похожие раздачи по запросу - Шеф
2024-07-01 magnet Шеф под прикрытием / High Heat (2022) BDRip-AVC от DoMiNo & селезень | D 1.47 GB ↑ 0 ↓ 0
2024-07-01 magnet Шеф под прикрытием / High Heat (2022) BDRip 720p от MegaPeer | D 4.65 GB ↑ 0 ↓ 0
2024-01-02 magnet Новогодний шеф (2023) WEB-DLRip от Generalfilm | КПК 334.99 MB ↑ 0 ↓ 0
2023-03-23 magnet Шеф под прикрытием / High Heat (2022) WEB-DLRip-AVC от ExKinoRay | D 744.35 MB ↑ 0 ↓ 0

Комментарии


Зарегистрируйтесь чтобы добавить комментарий
Торрент клиент
byTorrent - программа для загрузки торрент-файлов.

Скачать byTorrent.exe (1,5 МБ)

Скачать byTorrent.zip (0,6 МБ)

Поддержи torrent.by
российских рублей
(300 российских рублей это 4$)

Обратная связь rss

End game ©