↑↓torrent.by
Поиск
Логин:  Регистрация
Пароль:

Guided By Voices - Strut Of Kings [24-bit Hi-Res] (2024) FLAC

download Скачать торрент-файл   magnet Магнитная ссылка Размер: 448.96 MB Добавлен: 2024-07-02 11:00
Пиры будут получены из сети DHT
Последний сидер был замечен 2024-07-10 02:34
Название: Strut Of Kings Исполнитель: Guided By Voices Композитор: Robert Pollard Год: 2024 Жанр: Rock, Indie-Rock Издатель (лейбл): GBV Inc Продолжительность: 00:35:46 Формат/Кодек: FLAC Тип рипа: Tracks Битрейт аудио: Lossless Разрядность: 24 Bit/48 kHz
[+] Трек-лист 01. Show Me The Castle (00:04:25) 02. Dear Onion (00:01:48) 03. This Will Go On (00:02:09) 04. Fictional Environment Dream (00:03:56) 05. Olympus Cock In Radiana (00:02:51) 06. Leaving Umbrella (00:03:37) 07. Cavemen Running Naked (00:02:23) 08. Timing Voice (00:03:33) 09. Bit Of A Crunch (00:04:43) 10. Serene King (00:03:14) 11. Bicycle Garden (00:03:07)
[+] DRM foobar2000 1.5.5 / Замер динамического диапазона (DR) 1.1.1 ------------------------------------------------------------------------------- Анализ: Guided By Voices / Strut Of Kings -------------------------------------------------------------------------------- DR Пики RMS Продолжительность трека -------------------------------------------------------------------------------- DR9 -0.10 дБ -9.86 дБ 4:25 01-Show Me The Castle DR9 -0.10 дБ -9.29 дБ 1:48 02-Dear Onion DR7 -0.10 дБ -9.73 дБ 2:09 03-This Will Go On DR8 -0.10 дБ -9.05 дБ 3:56 04-Fictional Environment Dream DR8 -0.10 дБ -9.63 дБ 2:51 05-Olympus Cock In Radiana DR7 -0.10 дБ -8.07 дБ 3:37 06-Leaving Umbrella DR6 -0.10 дБ -7.75 дБ 2:23 07-Cavemen Running Naked DR6 -0.10 дБ -7.74 дБ 3:33 08-Timing Voice DR7 -0.10 дБ -9.42 дБ 4:43 09-Bit Of A Crunch DR7 -0.10 дБ -8.61 дБ 3:14 10-Serene King DR8 -0.10 дБ -9.68 дБ 3:07 11-Bicycle Garden -------------------------------------------------------------------------------- Количество треков: 11 Реальные значения DR: DR8 Частота: 48000 Гц Каналов: 2 Разрядность: 24 Битрейт: 1809 кбит/с Кодек: FLAC ================================================================================
Время раздачи: 24/7 (минимум до появления первых 3-5 скачавших, на раздачи не возвращаюсь) Первое правило участника файлообмена: "Скачал сам - дай скачать другому!"

Всего файлов в раздаче: 12 
01. Show Me the Castle.flac53.84 MB
02. Dear Onion.flac21.94 MB
03. This Will Go On.flac25.25 MB
04. Fictional Environment Dream.flac51.13 MB
05. Olympus Cock in Radiana.flac33.82 MB
06. Leaving Umbrella.flac42.83 MB
07. Cavemen Running Naked.flac30.08 MB
08. Timing Voice.flac46.50 MB
09. Bit of a Crunch.flac60.58 MB
10. Serene King.flac42.40 MB
Показать все файлы

Комментарии


Зарегистрируйтесь чтобы добавить комментарий
Торрент клиент
byTorrent - программа для загрузки торрент-файлов.

Скачать byTorrent.exe (1,5 МБ)

Скачать byTorrent.zip (0,6 МБ)

Поддержи torrent.by
российских рублей
(300 российских рублей это 4$)

Обратная связь rss

End game ©