↑↓torrent.by
Поиск
Логин:  Регистрация
Пароль:

Тёмная материя / Dark Matter [S01] (2024) WEB-DL 720p | P

download Скачать торрент-файл   magnet Магнитная ссылка Размер: 27.09 GB Добавлен: 2024-07-02 11:00
Пиры будут получены из сети DHT
Последний сидер был замечен 2024-07-03 14:11
Название: Тёмная материя Оригинальное название: Dark Matter Год выхода: 2024 Производство: США / Matt Tolmach Productions, Sony Pictures Television Жанр: Фантастика, триллер, драма Перевод: Профессиональный многоголосый Продолжительность: 09х ~00:50:00 Режиссёры: Якоб Вербрюгген, Роксанн Доусон, Логан Джордж, Селин Хелд, Алик Сахаров В ролях: Джоэл Эдгертон, Дженнифер Коннелли, Оукс Фегли, Алиси Брага, Джимми Симпсон, Дайо Окенийи, Аманда Бругел, Джимми Стикс Описание: Физик Джейсон Дессен из Чикаго оказывается в альтернативной версии свой жизни. Чтобы вернуться к своей семье, он должен будет пройти через ряд параллельных реальностей и столкнуться с альтернативной версией самого себя. Формат: MKV Качество: WEB-DL 720p Видео: MPEG4 AVC / ~2865 kbps / 1356x678 / 0.130 Бит/(Пиксели*Кадры) / 23.976 fps Аудио 01: E-AC3, 6 ch, 768 kbps | Русский, MVO | LostFilm | Аудио 02: AC-3, 6 ch, 384-448 kbps | Русский, MVO | TVShows | Аудио 03: E-AC3, 6 ch, 768 kbps | Русский, MVO | HDRezka | Аудио 04: E-AC3, 6 ch, 768 kbps | Русский, MVO | Jaskier | Аудио 05: E-AC3, 6 ch, 768 kbps | Русский, MVO | NewComers | Аудио 06: AC-3, 2 ch, 192 kbps | Русский, MVO | Red Head Sound | Аудио 07: E-AC3, 6 ch, 768 kbps | Украинский, MVO | DniproFilm | Аудио 08: E-AC3 JOC, 6 ch, 768 kbps | Английский | Субтитры: Русские (Forced, Full), Английские (Full, SDH)
[+] MediainfoОбщее Уникальный идентификатор : 177318567020421473589909760606988597353 (0x85665054ACF1536B181A963FCDE6F869) Полное имя : E:/Сериалы/СериалыЧёрная материя/Dark.Matter.S01.WEBDL.720p/Dark.Matter.S01E01.WEBDL.720p.mkv Формат : Matroska Версия формата : Version 4 Размер файла : 2,62 Гбайт Продолжительность : 46 мин. 15 с. Общий битрейт : 8 118 Кбит/сек Частота кадров : 23,976 кадра/сек Дата кодирования : 2024-05-27 20:02:20 UTC Программа кодирования : mkvmerge v84.0 ('Sleeper') 64-bit Библиотека кодирования : libebml v1.4.5 + libmatroska v1.7.1 Видео Идентификатор : 1 Формат : AVC Формат/Информация : Advanced Video Codec Профиль формата : High@L3.2 Настройки формата : CABAC / 5 Ref Frames Параметр CABAC формата : Да Параметр RefFrames формата : 5 кадров Параметр формата, количество фрагментов : 8 фрагментов на кадр Идентификатор кодека : V_MPEG4/ISO/AVC Продолжительность : 46 мин. 15 с. Битрейт : 2 865 Кбит/сек Ширина : 1 356 пикселей Высота : 678 пикселей Соотношение сторон дисплея : 2,000 Режим частоты кадров : Постоянный Частота кадров : 23,976 (24000/1001) кадра/сек Цветовое пространство : YUV Цветовая субдискретизация : 4:2:0 Битовая глубина : 8 бит Тип развёртки : Прогрессивная Бит/(Пиксели*Кадры) : 0.130 Размер потока : 948 Мбайт (35%) Язык : Английский По умолчанию : Да Принудительно : Нет Цветовой диапазон : Limited Основные цвета : BT.709 Характеристики трансфера : BT.709 Коэффициенты матрицы : BT.709 Аудио #1 Идентификатор : 2 Формат : E-AC-3 Формат/Информация : Enhanced AC-3 Коммерческое название : Dolby Digital Plus Идентификатор кодека : A_EAC3 Продолжительность : 46 мин. 15 с. Вид битрейта : Постоянный Битрейт : 768 Кбит/сек Канал(-ы) : 6 каналов Расположение каналов : L R C LFE Ls Rs Частота дискретизации : 48,0 КГц Частота кадров : 31,250 кадров/сек (1536 SPF) Метод сжатия : С потерями Размер потока : 254 Мбайт (9%) Заголовок : LF Язык : Русский Вид сервиса : Complete Main По умолчанию : Да Принудительно : Нет Нормализация звука речи : -27 dB compr : -0.28 dB mixlevel : 105 dB dmixmod : Lo/Ro ltrtcmixlev : -3.0 dB ltrtsurmixlev : -3.0 dB lorocmixlev : -3.0 dB lorosurmixlev : -3.0 dB dialnorm_Average : -27 dB dialnorm_Minimum : -27 dB dialnorm_Maximum : -27 dB Аудио #2 Идентификатор : 3 Формат : AC-3 Формат/Информация : Audio Coding 3 Коммерческое название : Dolby Digital Идентификатор кодека : A_AC3 Продолжительность : 46 мин. 15 с. Вид битрейта : Постоянный Битрейт : 448 Кбит/сек Канал(-ы) : 6 каналов Расположение каналов : L R C LFE Ls Rs Частота дискретизации : 48,0 КГц Частота кадров : 31,250 кадров/сек (1536 SPF) Метод сжатия : С потерями Размер потока : 148 Мбайт (6%) Заголовок : TVS Язык : Русский Вид сервиса : Complete Main По умолчанию : Нет Принудительно : Нет Нормализация звука речи : -31 dB cmixlev : -4.5 dB surmixlev : -6 dB dialnorm_Average : -31 dB dialnorm_Minimum : -31 dB dialnorm_Maximum : -31 dB Аудио #3 Идентификатор : 4 Формат : E-AC-3 Формат/Информация : Enhanced AC-3 Коммерческое название : Dolby Digital Plus Идентификатор кодека : A_EAC3 Продолжительность : 46 мин. 15 с. Вид битрейта : Постоянный Битрейт : 768 Кбит/сек Канал(-ы) : 6 каналов Расположение каналов : L R C LFE Ls Rs Частота дискретизации : 48,0 КГц Частота кадров : 31,250 кадров/сек (1536 SPF) Метод сжатия : С потерями Размер потока : 254 Мбайт (9%) Заголовок : HDr Язык : Русский Вид сервиса : Complete Main По умолчанию : Нет Принудительно : Нет Нормализация звука речи : -27 dB compr : -0.28 dB mixlevel : 105 dB dmixmod : Lo/Ro ltrtcmixlev : -3.0 dB ltrtsurmixlev : -3.0 dB lorocmixlev : -3.0 dB lorosurmixlev : -3.0 dB dialnorm_Average : -27 dB dialnorm_Minimum : -27 dB dialnorm_Maximum : -27 dB Аудио #4 Идентификатор : 5 Формат : E-AC-3 Формат/Информация : Enhanced AC-3 Коммерческое название : Dolby Digital Plus Идентификатор кодека : A_EAC3 Продолжительность : 46 мин. 15 с. Вид битрейта : Постоянный Битрейт : 768 Кбит/сек Канал(-ы) : 6 каналов Расположение каналов : L R C LFE Ls Rs Частота дискретизации : 48,0 КГц Частота кадров : 31,250 кадров/сек (1536 SPF) Метод сжатия : С потерями Размер потока : 254 Мбайт (9%) Заголовок : Jas Язык : Русский Вид сервиса : Complete Main По умолчанию : Нет Принудительно : Нет Нормализация звука речи : -27 dB compr : -0.28 dB mixlevel : 105 dB dmixmod : Lo/Ro ltrtcmixlev : -3.0 dB ltrtsurmixlev : -3.0 dB lorocmixlev : -3.0 dB lorosurmixlev : -3.0 dB dialnorm_Average : -27 dB dialnorm_Minimum : -27 dB dialnorm_Maximum : -27 dB Аудио #5 Идентификатор : 6 Формат : E-AC-3 Формат/Информация : Enhanced AC-3 Коммерческое название : Dolby Digital Plus Идентификатор кодека : A_EAC3 Продолжительность : 46 мин. 15 с. Вид битрейта : Постоянный Битрейт : 768 Кбит/сек Канал(-ы) : 6 каналов Расположение каналов : L R C LFE Ls Rs Частота дискретизации : 48,0 КГц Частота кадров : 31,250 кадров/сек (1536 SPF) Метод сжатия : С потерями Размер потока : 254 Мбайт (9%) Заголовок : NC Язык : Русский Вид сервиса : Complete Main По умолчанию : Нет Принудительно : Нет Нормализация звука речи : -27 dB compr : -0.28 dB mixlevel : 105 dB dmixmod : Lo/Ro ltrtcmixlev : -3.0 dB ltrtsurmixlev : -3.0 dB lorocmixlev : -3.0 dB lorosurmixlev : -3.0 dB dialnorm_Average : -27 dB dialnorm_Minimum : -27 dB dialnorm_Maximum : -27 dB Аудио #6 Идентификатор : 7 Формат : AC-3 Формат/Информация : Audio Coding 3 Коммерческое название : Dolby Digital Идентификатор кодека : A_AC3 Продолжительность : 46 мин. 15 с. Вид битрейта : Постоянный Битрейт : 192 Кбит/сек Канал(-ы) : 2 канала Расположение каналов : L R Частота дискретизации : 48,0 КГц Частота кадров : 31,250 кадров/сек (1536 SPF) Метод сжатия : С потерями Размер потока : 63,5 Мбайт (2%) Заголовок : RHS Язык : Русский Вид сервиса : Complete Main По умолчанию : Нет Принудительно : Нет Нормализация звука речи : -26 dB compr : -0.28 dB ltrtcmixlev : -3.0 dB ltrtsurmixlev : -3.0 dB lorocmixlev : -3.0 dB lorosurmixlev : -3.0 dB dialnorm_Average : -26 dB dialnorm_Minimum : -26 dB dialnorm_Maximum : -26 dB Аудио #7 Идентификатор : 8 Формат : E-AC-3 Формат/Информация : Enhanced AC-3 Коммерческое название : Dolby Digital Plus Идентификатор кодека : A_EAC3 Продолжительность : 46 мин. 15 с. Вид битрейта : Постоянный Битрейт : 768 Кбит/сек Канал(-ы) : 6 каналов Расположение каналов : L R C LFE Ls Rs Частота дискретизации : 48,0 КГц Частота кадров : 31,250 кадров/сек (1536 SPF) Метод сжатия : С потерями Размер потока : 254 Мбайт (9%) Заголовок : UKR Язык : Украинский Вид сервиса : Complete Main По умолчанию : Нет Принудительно : Нет Нормализация звука речи : -27 dB compr : -0.28 dB mixlevel : 105 dB dmixmod : Lo/Ro ltrtcmixlev : -3.0 dB ltrtsurmixlev : -3.0 dB lorocmixlev : -3.0 dB lorosurmixlev : -3.0 dB dialnorm_Average : -27 dB dialnorm_Minimum : -27 dB dialnorm_Maximum : -27 dB Аудио #8 Идентификатор : 9 Формат : E-AC-3 JOC Формат/Информация : Enhanced AC-3 with Joint Object Coding Коммерческое название : Dolby Digital Plus with Dolby Atmos Идентификатор кодека : A_EAC3 Продолжительность : 46 мин. 15 с. Вид битрейта : Постоянный Битрейт : 768 Кбит/сек Канал(-ы) : 6 каналов Расположение каналов : L R C LFE Ls Rs Частота дискретизации : 48,0 КГц Частота кадров : 31,250 кадров/сек (1536 SPF) Метод сжатия : С потерями Размер потока : 254 Мбайт (9%) Заголовок : Eng Язык : Английский Вид сервиса : Complete Main По умолчанию : Нет Принудительно : Нет Показатель сложности : 16 Количество динамических объектов : 15 Число каналов бэда : 1 канал Конфигурация каналов бэда : LFE Нормализация звука речи : -27 dB compr : -0.28 dB dialnorm_Average : -27 dB dialnorm_Minimum : -27 dB dialnorm_Maximum : -27 dB Текст #1 Идентификатор : 10 Формат : UTF-8 Идентификатор кодека : S_TEXT/UTF8 Идентификатор кодека/Информация : UTF-8 Plain Text Продолжительность : 40 мин. 49 с. Битрейт : 3 бит/сек Частота кадров : 0,007 кадр/сек Число элементов : 16 Размер потока : 986 байт (0%) Заголовок : Forc Язык : Русский По умолчанию : Да Принудительно : Нет Текст #2 Идентификатор : 11 Формат : UTF-8 Идентификатор кодека : S_TEXT/UTF8 Идентификатор кодека/Информация : UTF-8 Plain Text Продолжительность : 44 мин. 14 с. Битрейт : 61 бит/сек Частота кадров : 0,177 кадр/сек Число элементов : 470 Размер потока : 19,9 КиБ (0%) Заголовок : Rus Язык : Русский По умолчанию : Нет Принудительно : Нет Текст #3 Идентификатор : 12 Формат : UTF-8 Идентификатор кодека : S_TEXT/UTF8 Идентификатор кодека/Информация : UTF-8 Plain Text Продолжительность : 42 мин. 32 с. Битрейт : 41 бит/сек Частота кадров : 0,176 кадр/сек Число элементов : 450 Размер потока : 13,0 КиБ (0%) Заголовок : Eng Язык : Английский По умолчанию : Нет Принудительно : Нет Текст #4 Идентификатор : 13 Формат : UTF-8 Идентификатор кодека : S_TEXT/UTF8 Идентификатор кодека/Информация : UTF-8 Plain Text Продолжительность : 44 мин. 57 с. Битрейт : 51 бит/сек Частота кадров : 0,210 кадр/сек Число элементов : 566 Размер потока : 17,0 КиБ (0%) Заголовок : SDH Язык : Английский По умолчанию : Нет Принудительно : Нет Меню 00:00:00.000 : en:Studio Logo 00:00:08.843 : en:Main 00:45:10.833 : en:Credits
[+] Скриншоты

Всего файлов в раздаче: 9 
Dark.Matter.S01E01.WEBDL.720p.RGzsRutracker.mkv2.62 GB
Dark.Matter.S01E02.WEBDL.720p.RGzsRutracker.mkv3.04 GB
Dark.Matter.S01E03.WEBDL.720p.RGzsRutracker.mkv2.81 GB
Dark.Matter.S01E04.WEBDL.720p.RGzsRutracker.mkv3.40 GB
Dark.Matter.S01E05.WEBDL.720p.RGzsRutracker.mkv3.15 GB
Dark.Matter.S01E06.WEBDL.720p.RGzsRutracker.mkv3.09 GB
Dark.Matter.S01E07.WEBDL.720p.RGzsRutracker.mkv2.88 GB
Dark.Matter.S01E08.WEBDL.720p.RGzsRutracker.mkv2.65 GB
Dark.Matter.S01E09.WEBDL.720p.RGzsRutracker.mkv3.44 GB

Похожие раздачи по запросу - Тёмная
2024-07-05 magnet Тёмная материя / Dark Matter [S01] (2024) WEB-DL 720p | P 27.41 GB ↑ 0 ↓ 14
2024-07-03 magnet Тёмная материя / Dark Matter [S01] (2024) WEB-DLRip-AVC | КПК | Jaskier 2.21 GB ↑ 0 ↓ 0
2024-07-03 magnet Темная половина / The Dark Half (1993) HDTV 1080i от HDClub 7.71 GB ↑ 0 ↓ 0
2024-07-03 magnet Темная половина / The Dark Half (1993) BDRip от HQCLUB 2.67 GB ↑ 0 ↓ 0
2024-07-02 magnet Тёмная материя / Dark Matter [S01] (2024) UHD WEB-DL 2160p | 4K | HDR | Dolby Vision Profile 8 | P 98.97 GB ↑ 0 ↓ 3
2024-07-02 magnet Тёмная материя / Dark Matter [S01] (2024) WEB-DL 1080p | HDrezka Studio, LostFilm, NewComers, TVShows, Red Head Sound 42.65 GB ↑ 0 ↓ 5
2024-07-01 magnet Тёмная материя / Dark Matter [S01] (2024) WEB-DLRip | LostFilm 6.66 GB ↑ 0 ↓ 2

Комментарии


Зарегистрируйтесь чтобы добавить комментарий
Торрент клиент
byTorrent - программа для загрузки торрент-файлов.

Скачать byTorrent.exe (1,5 МБ)

Скачать byTorrent.zip (0,6 МБ)

Поддержи torrent.by
российских рублей
(300 российских рублей это 4$)

Обратная связь rss

End game ©