↑↓torrent.by
Поиск
Логин:  Регистрация
Пароль:

Снять проклятие / Reverse the Curse (2023) WEB-DLRip-AVC | L | RGB

download Скачать торрент-файл   magnet Магнитная ссылка Размер: 1.60 GB Раздают: 2 Качают: 0 Добавлен: il68k 2024-07-02 13:10
Пиры будут получены из сети DHT
Последний сидер был замечен сегодня в 11:12
Информация о фильме Название: Снять проклятие Оригинальное название: Reverse the Curse Год выхода: 2023 Жанр: драма, мелодрама, комедия, спорт Режиссер: Дэвид Духовны В ролях: Стефани Беатриз, Памела Адлон, Логан Маршалл-Грин, Дэвид Духовны, Джейсон Бех, Эван Хэндлер, Дафна Рубин-Вега, Бен Хопкинс, Санто Фацио, Ральф Йован Родригес О фильме: 33-летний писатель-неудачник Тед, давно переставший преследовать всякие жизненные цели, узнает, что его отец Марти серьезно болен. Парень переезжает к нему и вскоре замечает, что состояние отца ухудшается всякий раз, как проигрывает его любимая бейсбольная команда «Ред Сокс». Чтобы избавить старика от лишних переживаний, Тед решает сфальсифицировать итоги матчей с помощью отцовских приятелей. Между тем, он знакомится с очаровательной Марианной, которая возрождает в нем тягу к писательству. Страна: США Студия: Yale Productions Продолжительность: 01:48:33 Перевод: Любительский (многоголосый закадровый) | RGB Файл Формат: MKV Качество: WEB-DLRip-AVC Видео: AVC/H.264, 720x388, 23.976 fps, ~1665 Kbps Аудио: AC3, 48.0 kHz, 6 ch, 448 Kbps - Русский | RGB Субтитры: английские (full, SDH) Семпл
[+] Скриншоты
[+] MediaInfo General Unique ID: 325422128959656250021399074230226053026 (0xF4D205B3AE56D2D3081DF7DFAF16E7A2) Complete name: E:\RGB\Reverse.the.Curse.2023.WEB.MVO-RGB.mkv Format: Matroska Format version: Version 4 File size: 1.60 GiB Duration: 1 h 48 min Overall bit rate: 2 114 kb/s Frame rate: 23.976 FPS Movie name: RGB Director: David Duchovny Genre: Comedy, Drama, Romance Summary: Follows Ted who moves in with his father Marty when he develops a fatal illness. To keep him happy and alive, Ted enlists Marty's grief counselor Mariana and friends to fake a Red Sox winning streak. Encoded date: 2024-06-30 21:41:51 UTC Writing application: mkvmerge v82.0 ('I'm The President') 64-bit Writing library: libebml v1.4.5 + libmatroska v1.7.1 IMDB: tt20216624 Video ID: 1 Format: AVC Format/Info: Advanced Video Codec Format profile: High@L4.1 Format settings: CABAC / 10 Ref Frames Format settings, CABAC: Yes Format settings, Reference: 10 frames Codec ID: V_MPEG4/ISO/AVC Duration: 1 h 48 min Bit rate: 1 665 kb/s Width: 720 pixels Height: 388 pixels Display aspect ratio: 1.85:1 Frame rate mode: Constant Frame rate: 23.976 (24000/1001) FPS Color space: YUV Chroma subsampling: 4:2:0 Bit depth: 8 bits Scan type: Progressive Bits/(Pixel*Frame): 0.249 Stream size: 1.26 GiB (79%) Title: RGB Language: English Default: Yes Forced: No Audio ID: 2 Format: AC-3 Format/Info: Audio Coding 3 Commercial name: Dolby Digital Codec ID: A_AC3 Duration: 1 h 48 min Bit rate mode: Constant Bit rate: 448 kb/s Channel(s): 6 channels Channel layout: L R C LFE Ls Rs Sampling rate: 48.0 kHz Frame rate: 31.250 FPS (1536 SPF) Compression mode: Lossy Stream size: 348 MiB (21%) Title: MVO Language: Russian Service kind: Complete Main Default: Yes Forced: No Dialog Normalization: -27 dB compr: -0.28 dB cmixlev: -3.0 dB surmixlev: -3 dB mixlevel: 285 dB roomtyp: 3 ltrtcmixlev: -3.0 dB ltrtsurmixlev: -3.0 dB lorocmixlev: -3.0 dB lorosurmixlev: -4.5 dB dialnorm_Average: -27 dB dialnorm_Minimum: -27 dB dialnorm_Maximum: -27 dB Text ID: 3 Format: UTF-8 Codec ID: S_TEXT/UTF8 Codec ID/Info: UTF-8 Plain Text Duration: 1 h 47 min Bit rate: 75 b/s Frame rate: 0.320 FPS Count of elements: 2068 Stream size: 59.8 KiB (0%) Title: SDH Language: English Default: No Forced: No
Релиз от: RGB

Всего файлов в раздаче: 1 
Reverse.the.Curse.2023.WEB.MVO-RGB.mkv1.60 GB

Похожие раздачи по запросу - Снять проклятие
Сегодня magnet Проклятие демона / Sang krasue 2 / Inhuman Kiss: The Last Breath (2023) WEB-DLRip-AVC от DoMiNo & селезень | D | Leff Sound | Локализованная версия 1.45 GB ↑ 1 ↓ 2
Вчера magnet Проклятие демона / Sang krasue 2 / Inhuman Kiss: The Last Breath (2023) WEB-DL 1080p | D | Leff Sound 3.92 GB ↑ 0 ↓ 1
Вчера magnet Проклятие демона / Sang krasue 2 / Inhuman Kiss: The Last Breath (2023) WEB-DLRip от New-Team | D | Локализованная версия 1.46 GB ↑ 0 ↓ 0
2024-07-04 magnet Снять проклятие / Reverse the Curse (2023) WEB-DLRip-AVC | P | HDRezka Studio 1.98 GB ↑ 1 ↓ 0
2024-07-04 magnet Снять проклятие / Reverse the Curse (2023) WEB-DLRip от New-Team | P | HDRezka Studio 1.46 GB ↑ 0 ↓ 0
2024-07-04 magnet Снять проклятие / Reverse the Curse (2023) WEB-DLRip 720p от DoMiNo & селезень | P | HDRezka Studio 2.76 GB ↑ 0 ↓ 0
2024-07-02 magnet Снять проклятие / Reverse the Curse (2023) WEB-DL 1080p | L | RGB 7.73 GB ↑ 5 ↓ 1

Комментарии


Зарегистрируйтесь чтобы добавить комментарий
Торрент клиент
byTorrent - программа для загрузки торрент-файлов.

Скачать byTorrent.exe (1,5 МБ)

Скачать byTorrent.zip (0,6 МБ)

Поддержи torrent.by
российских рублей
(300 российских рублей это 4$)

Обратная связь rss

End game ©