↑↓torrent.by
Поиск
Логин:  Регистрация
Пароль:

Ужин по-американски / Dinner in America (2020) HDRip-AVC от DoMiNo & селезень | P, A

download Скачать торрент-файл   magnet Магнитная ссылка Размер: 2.50 GB Добавлен: 2024-07-02 17:00
Пиры будут получены из сети DHT
Последний сидер был замечен 2024-07-02 17:00
Информация о фильме Название: Ужин по-американски Оригинальное название: Обед в Америке / Dinner in America Год выпуска: 2020 Жанр: драма, мелодрама, комедия, музыка Режиссер: Адам Ремейер В ролях: Кайл Галлнер, Янси Фьюкуа, Дженнифер Кинсер, Ханна Маркс, Рики Уэйн, Лиа Томпсон, Ник Чинланд, Шон Роджерс, Эмили Скеггс, Нико Гритэм Описание: Панк-рокер Саймон, разыскиваемый полицией, случайно сталкивается с робкой тихоней Пэтти и находит укрытие в её доме. С этого момента жизнь обоих кардинально меняется. Выпущено: США / Atlas Industries, Bee-Hive Productions, Burn Later Productions Продолжительность: 01:48:01 Перевод 1: Профессиональный (многоголосый, закадровый) | Okko Перевод 2: Авторский (одногоголосый, закадровый) | М. Яроцкий 18+ Субтитры: Русские (Forced -на песни 18+, Full 18+), английские (Full, SDH) Файл Формат: Matroska Качество: HDRip-AVC | Видео: 1024x430 at 23.976 fps, x264@L4.1, ~2477 kbps Аудио 1: AC3, 6 ch, ~384 kbps - | Русский | | MVO Аудио 2: AC3, 6 ch, ~448 kbps - | Русский | | М. Яроцкий Формат субтитров: softsub (SRT) ***Рип от: -=DoMiNo=-
[+] M/IGeneral Unique ID : 310447979273635123374885569681558769411 (0xE98E1B1F42E724163A251281FB228F03) Complete name : U:Dinner.in.America.2020.P.A.x264.seleZen.mkv Format : Matroska Format version : Version 4 File size : 2.50 GiB Duration : 1 h 48 min Overall bit rate : 3 311 kb/s Frame rate : 23.976 FPS Movie name : Dinner.in.America.2020.P.A.x264.seleZen Encoded date : 2024-07-02 08:20:21 UTC Writing application : mkvmerge v85.0 ('Shame For You') 64-bit Writing library : libebml v1.4.5 + libmatroska v1.7.1 Cover : Yes Attachments : cover.jpg / small_cover.jpg Video ID : 1 Format : AVC Format/Info : Advanced Video Codec Format profile : High@L4.1 Format settings : CABAC / 16 Ref Frames Format settings, CABAC : Yes Format settings, Reference : 16 frames Codec ID : V_MPEG4/ISO/AVC Duration : 1 h 48 min Bit rate : 2 477 kb/s Width : 1 024 pixels Height : 430 pixels Display aspect ratio : 2.39:1 Frame rate mode : Constant Frame rate : 23.976 (24000/1001) FPS Color space : YUV Chroma subsampling : 4:2:0 Bit depth : 8 bits Scan type : Progressive Bits/(Pixel*Frame) : 0.235 Stream size : 1.87 GiB (75%) Title : -=DoMiNo=- Writing library : x264 core 164 r3191 -DoMiNo Encoding settings : cabac=1 / ref=16 / deblock=1:-3:-2 / analyse=0x3:0x133 / me=umh / subme=10 / psy=1 / psy_rd=1.05:0.05 / mixed_ref=1 / me_range=32 / chroma_me=1 / trellis=2 / 8x8dct=1 / cqm=0 / deadzone=21,11 / fast_pskip=0 / chroma_qp_offset=-3 / threads=13 / lookahead_threads=3 / sliced_threads=0 / nr=0 / decimate=1 / interlaced=0 / bluray_compat=0 / constrained_intra=0 / bframes=16 / b_pyramid=2 / b_adapt=2 / b_bias=0 / direct=3 / weightb=1 / open_gop=0 / weightp=2 / keyint=240 / keyint_min=23 / scenecut=40 / intra_refresh=0 / rc_lookahead=60 / rc=crf / mbtree=0 / crf=19.7 / qcomp=0.60 / qpmin=0 / qpmax=69 / qpstep=4 / vbv_maxrate=50000 / vbv_bufsize=62500 / crf_max=0.0 / nal_hrd=none / filler=0 / ip_ratio=1.40 / pb_ratio=1.30 / aq=3:0.80 Language : English Default : Yes Forced : No Color range : Limited Color primaries : BT.709 Transfer characteristics : BT.709 Matrix coefficients : BT.709 Audio #1 ID : 2 Format : AC-3 Format/Info : Audio Coding 3 Commercial name : Dolby Digital Codec ID : A_AC3 Duration : 1 h 48 min Bit rate mode : Constant Bit rate : 384 kb/s Channel(s) : 6 channels Channel layout : L R C LFE Ls Rs Sampling rate : 48.0 kHz Frame rate : 31.250 FPS (1536 SPF) Compression mode : Lossy Stream size : 297 MiB (12%) Title : MVO Language : Russian Service kind : Complete Main Default : Yes Forced : No Dialog Normalization : -24 dB compr : -0.28 dB cmixlev : -3.0 dB surmixlev : -3 dB mixlevel : 285 dB roomtyp : 3 ltrtcmixlev : -3.0 dB ltrtsurmixlev : -3.0 dB lorocmixlev : -3.0 dB lorosurmixlev : -4.5 dB dialnorm_Average : -24 dB dialnorm_Minimum : -24 dB dialnorm_Maximum : -24 dB Audio #2 ID : 3 Format : AC-3 Format/Info : Audio Coding 3 Commercial name : Dolby Digital Codec ID : A_AC3 Duration : 1 h 48 min Bit rate mode : Constant Bit rate : 448 kb/s Channel(s) : 6 channels Channel layout : L R C LFE Ls Rs Sampling rate : 48.0 kHz Frame rate : 31.250 FPS (1536 SPF) Compression mode : Lossy Stream size : 346 MiB (14%) Title : М. Яроцкий 18+ Language : Russian Service kind : Complete Main Default : No Forced : No Dialog Normalization : -31 dB cmixlev : -4.5 dB surmixlev : -6 dB dialnorm_Average : -31 dB dialnorm_Minimum : -31 dB dialnorm_Maximum : -31 dB Text #1 ID : 4 Format : UTF-8 Codec ID : S_TEXT/UTF8 Codec ID/Info : UTF-8 Plain Text Duration : 1 h 36 min Bit rate : 7 b/s Frame rate : 0.020 FPS Count of elements : 119 Stream size : 5.53 KiB (0%) Title : Forced 18+ Language : Russian Default : No Forced : No Text #2 ID : 5 Format : UTF-8 Codec ID : S_TEXT/UTF8 Codec ID/Info : UTF-8 Plain Text Duration : 1 h 42 min Bit rate : 82 b/s Frame rate : 0.210 FPS Count of elements : 1296 Stream size : 62.4 KiB (0%) Title : Full 18+ Language : Russian Default : No Forced : No Text #3 ID : 6 Format : UTF-8 Codec ID : S_TEXT/UTF8 Codec ID/Info : UTF-8 Plain Text Duration : 1 h 41 min Bit rate : 52 b/s Frame rate : 0.200 FPS Count of elements : 1224 Stream size : 39.2 KiB (0%) Title : Full Language : English Default : No Forced : No Text #4 ID : 7 Format : UTF-8 Codec ID : S_TEXT/UTF8 Codec ID/Info : UTF-8 Plain Text Duration : 1 h 44 min Bit rate : 62 b/s Frame rate : 0.260 FPS Count of elements : 1629 Stream size : 47.8 KiB (0%) Title : SDH Language : English Default : No Forced : No Menu 00:00:00.000 : en:Chapter 01 00:07:34.329 : en:Chapter 02 00:18:35.614 : en:Chapter 03 00:27:25.769 : en:Chapter 04 00:37:19.779 : en:Chapter 05 00:46:59.900 : en:Chapter 06 00:55:39.753 : en:Chapter 07 01:03:07.993 : en:Chapter 08 01:11:06.554 : en:Chapter 09 01:19:30.265 : en:Chapter 10 01:28:05.197 : en:Chapter 11 01:37:32.305 : en:Chapter 12
Релиз: Присоединяйся к: Кликай на баннеры.

Всего файлов в раздаче: 1 
Dinner.in.America.2020.P.A.x264.seleZen.mkv2.50 GB

Похожие раздачи по запросу - Ужин
Сегодня magnet Ужин с придурками / Dinner for Schmucks (2010) BDRip от HQCLUB 2.18 GB ↑ 0 ↓ 0
Сегодня magnet Ужин с придурком / Le dîner de cons (1998) BDRemux 1080p | P 16.90 GB ↑ 0 ↓ 0
Сегодня magnet Ужин с придурком / Le dîner de cons (1998) BDRip-AVC | iPad | P 1.82 GB ↑ 0 ↓ 0
Сегодня magnet Ужин с придурками / Dinner for Schmucks (2010) BDRip 1080p | D 10.29 GB ↑ 0 ↓ 0
Сегодня magnet Ужин с придурками / Dinner for Schmucks (2010) HDRip | D 743.88 MB ↑ 0 ↓ 0
Вчера magnet Ужин с придурком / Le dîner de cons (1998) BDRip | P, L1 1.47 GB ↑ 0 ↓ 0
Вчера magnet Ужин с придурком / Le dîner de cons (1998) BDRip от HQ-ViDEO 1.96 GB ↑ 0 ↓ 0

Комментарии


Зарегистрируйтесь чтобы добавить комментарий
Торрент клиент
byTorrent - программа для загрузки торрент-файлов.

Скачать byTorrent.exe (1,5 МБ)

Скачать byTorrent.zip (0,6 МБ)

Поддержи torrent.by
российских рублей
(300 российских рублей это 4$)

Обратная связь rss

End game ©