↑↓torrent.by
Поиск
Логин:  Регистрация
Пароль:

Газонокосильщик / The Lawnmower Man (1992) BDRip-AVC от DoMiNo | P | Режиссерская версия

download Скачать торрент-файл   magnet Магнитная ссылка Размер: 1.37 GB Добавлен: 2024-07-02 17:00
Пиры будут получены из сети DHT
Последний сидер был замечен вчера в 11:42
Информация о фильме Название: Газонокосильщик Оригинальное название: The Lawnmower Man Год выхода: 1992 Жанр: Ужасы, фантастика Режиссер: Бретт Леонард / Brett Leonard В ролях: Джефф Фэйи / Jeff Fahey, Пирс Броснан / Pierce Brosnan, Дженни Райт / Jenny Wright, Марк Бринглсон / Mark Bringleson, Джеффри Льюис / Geoffrey Lewis, Джереми Слейт / Jeremy Slate, Дин Норрис / Dean Norris, Коллин Коффи / Colleen Coffey, Джим Лэндис / Jim Landis, Трой Эванс / Troy Evans, Розали Майокс / Rosalee Mayeux О фильме: Молодой талантливый ученый Трэйс ставит над умственно неполноценным косильщиком лужаек Джоубом эксперименты с использованием высоких компьютерных технологий в комбинации с наркотиками. Трэйс внедряет Джоуба в виртуальную реальность — трехмерный компьютерный мир. Ученому удается развить умственные способности вчерашнего недоумка до супергения. Но в ход эксперимента тайно вмешиваются военные, и испытуемый превращается в сверхинтеллектуального монстра-психопата в человеческом облике, у которого возникают претензии на мировое господство. Страна: Великобритания, США, Япония Студия: Allied Vision, Fuji Eight Company Ltd., Lane Pringle Productions Продолжительность: 2:20:53 Перевод:: Профессиональный (многоголосый закадровый) |R5 от Lizard| Файл Кодек: H.264 Качество: BDRip-AVC Видео: High@L4.1, 766x414, 23.976 fps, ~1002 kbit/s Аудио: AC3, 5.1, ~384 kbit/s, 48 kHz Субтитры: Нет
[+] M/IGeneral Unique ID : 57489264309706843499483136330895840112 (0x2B400791576E37F0C79667C84FEDD370) Complete name : Газонокосильщик.(1992).BDRIP_AVC..mkv Format : Matroska Format version : Version 4 / Version 2 File size : 1.37 GiB Duration : 2 h 20 min Overall bit rate : 1 389 kb/s Movie name : Газонокосильщик Deion : Молодой талантливый ученый Трэйс ставит над умственно неполноценным косильщиком лужаек Джоубом эксперименты с использованием высоких компьютерных технологий в комбинации с наркотиками. Трэйс внедряет Джоуба в виртуальную реальность — трехмерный компьютерный мир. Ученому удается развить умственные способности вчерашнего недоумка до супергения. Но в ход эксперимента тайно вмешиваются военные, и испытуемый превращается в сверхинтеллектуального монстра-психопата в человеческом облике, у которого возникают претензии на мировое господство. Attachments : poster.jpg ACTORS : Джефф Фэйи, Пирс Броснан, Дженни Райт, Марк Бринглсон, Джеффри Льюис, Джереми Слейт, Дин Норрис, Коллин Коффи, Джим Лэндис, Трой Эванс, Розали Майю, Остин О’Брайен, Майкл Грегори, Джо Харт, Джон Лофлин, Рэй Лайкинс, Майкл Вальверде, Дэйл Рауль, Фрэнк Коллисон, Джон Смарт, Стефен Грегори Фостер, Даг Хатчисон, Денни Пирс, Роджер Рук, Крэйг Бентон, Рэндолл Фонтана, Мара Дуронслет, Дуан Бирн, Брюс Е. Холман, Дэррелл Мапсон COMPOSER : Дэн Уаймен COUNTRY : Великобритания, США, Япония DATE : 1992 DIRECTOR : Бретт Леонард GENRE : ужасы, фантастика IMDB_RATING : 5.40 ITUNEXTC : mpaa|R|400| PRODUCER : Гаймел Эверет, Стивен А. Лэйн, Питер А. МакРей, Роберт Прингл, Эдвард Саймонс, Милтон Суботски, Масао Такияма, Клайв Тернер RATING : 6.642 WRITER : Бретт Леонард, Гаймел Эверет Video ID : 1 Format : AVC Format/Info : Advanced Video Codec Format profile : High@L4.1 Format settings, CABAC : Yes Format settings, ReFrames : 11 frames Codec ID : V_MPEG4/ISO/AVC Duration : 2 h 20 min Bit rate : 1 002 kb/s Width : 766 pixels Height : 414 pixels Display aspect ratio : 1.85:1 Frame rate mode : Constant Frame rate : 23.976 (24000/1001) FPS Color space : YUV Chroma subsampling : 4:2:0 Bit depth : 8 bits Scan type : Progressive Bits/(Pixel*Frame) : 0.132 Stream size : 985 MiB (70%) Title : RIP_BY_-=DoMiNo=- Writing library : x264 core 150 r2833M df79067 Encoding settings : cabac=1 / ref=11 / deblock=1:-3:-3 / analyse=0x3:0x133 / me=umh / subme=11 / psy=1 / psy_rd=1.00:0.05 / mixed_ref=1 / me_range=32 / chroma_me=1 / trellis=2 / 8x8dct=1 / cqm=0 / deadzone=21,11 / fast_pskip=0 / chroma_qp_offset=-3 / threads=6 / lookahead_threads=1 / sliced_threads=0 / nr=0 / decimate=1 / interlaced=0 / bluray_compat=0 / constrained_intra=0 / bframes=12 / b_pyramid=2 / b_adapt=2 / b_bias=0 / direct=3 / weightb=1 / open_gop=0 / weightp=2 / keyint=230 / keyint_min=23 / scenecut=40 / intra_refresh=0 / rc=2pass / mbtree=0 / bitrate=1002 / ratetol=1.0 / qcomp=0.65 / qpmin=0 / qpmax=69 / qpstep=4 / cplxblur=20.0 / qblur=0.5 / ip_ratio=1.40 / pb_ratio=1.30 / aq=1:1.00 Default : Yes Forced : No DURATION : 02:20:53.195000000 Audio ID : 2 Format : AC-3 Format/Info : Audio Coding 3 Format settings, Endianness : Big Codec ID : A_AC3 Duration : 2 h 20 min Bit rate mode : Constant Bit rate : 384 kb/s Channel(s) : 6 channels Channel positions : Front: L C R, Side: L R, LFE Sampling rate : 48.0 kHz Frame rate : 31.250 FPS (1536 spf) Bit depth : 16 bits Compression mode : Lossy Stream size : 387 MiB (28%) Title : MVO_R5 от Lizard Language : Russian Service kind : Complete Main Default : Yes Forced : No DURATION : 02:20:48.960000000 Menu 00:00:00.000 : :Глава 1 00:11:54.879 : :Глава 2 00:23:42.628 : :Глава 3 00:36:34.650 : :Глава 4 00:48:18.393 : :Глава 5 00:58:57.824 : :Глава 6 01:12:10.783 : :Глава 7 01:24:11.296 : :Глава 8 01:36:12.725 : :Глава 9 01:46:46.358 : :Глава 10 01:57:09.313 : :Глава 11 02:07:19.506 : :Глава 12
[+] Скриншоты

Всего файлов в раздаче: 1 
Газонокосильщик.(1992).BDRIP_AVC.[-=DoMiNo=-].mkv1.37 GB

Похожие раздачи по запросу - Газонокосильщик
2024-07-04 magnet Газонокосильщик / The Lawnmower Man (1992) BDRip-HEVC 1080p от RIPS CLUB | P2, A | Director's Cut 13.85 GB ↑ 0 ↓ 0
2024-07-02 magnet Газонокосильщик / The Lawnmower Man (1992) BDRip-AVC от DoMiNo | P | Режиссерская версия 4.46 GB ↑ 0 ↓ 0

Комментарии


Зарегистрируйтесь чтобы добавить комментарий
Торрент клиент
byTorrent - программа для загрузки торрент-файлов.

Скачать byTorrent.exe (1,5 МБ)

Скачать byTorrent.zip (0,6 МБ)

Поддержи torrent.by
российских рублей
(300 российских рублей это 4$)

Обратная связь rss

End game ©