↑↓torrent.by
Поиск
Логин:  Регистрация
Пароль:

Мой ласковый и нежный зверь (1978) BDRip 720p от New-Team

download Скачать торрент-файл   magnet Магнитная ссылка Размер: 2.91 GB Добавлен: 2024-07-02 17:00
Пиры будут получены из сети DHT
Последний сидер был замечен 2024-07-05 11:29
Страна: СССР, Германия (ФРГ) Производство: Inter Allianz Film, Мосфильм, Satra, Совэкспортфильм Жанр: драма, мелодрама, история Год выпуска: 1978 Продолжительность: 01:47:55 Перевод: не требуется Оригинальная аудиодорожка: русский Cубтитры: нет Режиссер: Эмиль Лотяну В ролях: Галина Беляева, Олег Янковский, Кирилл Лавров, Леонид Марков, Светлана Тома, Григоре Григориу, Василий Симчич, Олегар Федоро, Александр Звенигорский, Анна Петрова... Подробнее об актерах Описание: Юная Оленька родилась и выросла в бедной семье, поэтому вынуждена выйти замуж за богатого, но нелюбимого человека, который, к тому же, гораздо старше ее. Но сердцу не прикажешь, и страстная любовь вдруг настигает «девушку на выданье» — вот только любящий ее человек не может смириться с тем, что она отдана другому… Исходник: BDRemux 1080p Тип релиза: BDRip 720p Контейнер: MKV Видео: 1160x720 (16:10), 23,976 кадра/сек, x264 core 164 r3182 ~ 3 409 кбит/сек, 0.170 бит/пиксель Аудио: 48 кГц, Dolby Digital AC3 5.1, 448 кбит/сек Раздача от:
[+] MediaInfo Общее Полное имя : Мой ласковый и нежный зверь.1978.BDRip720p__by_AVP_Studio.mkv Формат : Matroska Версия формата : Version 2 Размер файла : 2,91 Гбайт Продолжительность : 1 ч. 47 мин. Общий битрейт : 3 859 Кбит/сек Частота кадров : 23,976 кадра/сек Дата кодирования : 2024-06-29 20:52:11 UTC Программа кодирования : mkvmerge v6.9.1 ('Blue Panther') 32bit built on Apr 18 2014 18:15:44 Библиотека кодирования : libebml v1.3.0 + libmatroska v1.4.1 Видео Идентификатор : 1 Формат : AVC Формат/Информация : Advanced Video Codec Профиль формата : High@L4.1 Настройки формата : CABAC / 8 Ref Frames Параметр CABAC формата : Да Параметр RefFrames формата : 8 кадров Идентификатор кодека : V_MPEG4/ISO/AVC Продолжительность : 1 ч. 47 мин. Битрейт : 3 409 Кбит/сек Ширина : 1 160 пикселей Высота : 720 пикселей Соотношение сторон дисплея : 16:10 Режим частоты кадров : Постоянный Частота кадров : 23,976 (24000/1001) кадра/сек Цветовое пространство : YUV Цветовая субдискретизация : 4:2:0 Битовая глубина : 8 бит Тип развёртки : Прогрессивная Бит/(Пиксели*Кадры) : 0.170 Размер потока : 2,51 Гбайт (86%) Библиотека кодирования : x264 core 164 r3182 be4f020 Параметры библиотеки кодирования : cabac=1 / ref=8 / deblock=1:-3:-3 / analyse=0x3:0x133 / me=umh / subme=10 / psy=1 / psy_rd=1.00:0.00 / mixed_ref=1 / me_range=32 / chroma_me=1 / trellis=2 / 8x8dct=1 / cqm=0 / deadzone=21,11 / fast_pskip=1 / chroma_qp_offset=-2 / threads=6 / lookahead_threads=1 / sliced_threads=0 / nr=0 / decimate=0 / interlaced=0 / bluray_compat=0 / constrained_intra=0 / bframes=8 / b_pyramid=2 / b_adapt=2 / b_bias=0 / direct=3 / weightb=1 / open_gop=0 / weightp=2 / keyint=240 / keyint_min=24 / scenecut=40 / intra_refresh=0 / rc=2pass / mbtree=0 / bitrate=3409 / ratetol=1.0 / qcomp=0.60 / qpmin=0 / qpmax=69 / qpstep=4 / cplxblur=20.0 / qblur=0.5 / ip_ratio=1.40 / pb_ratio=1.30 / aq=1:1.00 По умолчанию : Да Принудительно : Нет Аудио Идентификатор : 2 Формат : AC-3 Формат/Информация : Audio Coding 3 Коммерческое название : Dolby Digital Идентификатор кодека : A_AC3 Продолжительность : 1 ч. 47 мин. Вид битрейта : Постоянный Битрейт : 448 Кбит/сек Канал(-ы) : 6 каналов Расположение каналов : L R C LFE Ls Rs Частота дискретизации : 48,0 КГц Частота кадров : 31,250 кадров/сек (1536 SPF) Метод сжатия : С потерями Размер потока : 346 Мбайт (12%) По умолчанию : Да Принудительно : Нет Нормализация звука речи : -31 dB cmixlev : -3.0 dB surmixlev : -3 dB dialnorm_Average : -31 dB dialnorm_Minimum : -31 dB dialnorm_Maximum : -31 dB
[+] Скриншоты

Всего файлов в раздаче: 1 
Мой ласковый и нежный зверь.1978.BDRip720p_[New-team]_by_AVP_Studio.mkv2.91 GB

Похожие раздачи по запросу - Мой
2024-07-07 magnet Мой младший брат (1962) DVDRip от New-Team 1.46 GB ↑ 0 ↓ 0
2024-07-03 magnet Мой младший брат (1962) DVDRip-AVC от New-Team 1.46 GB ↑ 0 ↓ 0
2024-07-02 magnet Мой ласковый и нежный зверь (1978) BDRip-AVC от New-Team 2.19 GB ↑ 0 ↓ 0
2024-06-28 magnet Мой муж нанял киллера / My Husband Hired a Hitman (2024) WEB-DL 720p | ViruseProject 1.77 GB ↑ 0 ↓ 0
2024-05-25 magnet Невидимый мой (2023) WEB-DL 1080p от ELEKTRI4KA 3.62 GB ↑ 0 ↓ 0
2024-05-25 magnet Невидимый мой (2023) WEB-DLRip от ELEKTRI4KA 1.46 GB ↑ 0 ↓ 0
2024-02-04 magnet Фокина А.С. - Мой первый фразеологический словарь русского языка (2015) PDF 19.80 MB ↑ 0 ↓ 0

Комментарии


Зарегистрируйтесь чтобы добавить комментарий
Торрент клиент
byTorrent - программа для загрузки торрент-файлов.

Скачать byTorrent.exe (1,5 МБ)

Скачать byTorrent.zip (0,6 МБ)

Поддержи torrent.by
российских рублей
(300 российских рублей это 4$)

Обратная связь rss

End game ©