↑↓torrent.by
Поиск
Логин:  Регистрация
Пароль:

Священный танец / Fancy Dance (2023) WEB-DL 720p от селезень | P | HDRezka Studio

download Скачать торрент-файл   magnet Магнитная ссылка Размер: 2.41 GB Добавлен: 2024-07-02 17:00
Пиры будут получены из сети DHT
Последний сидер был замечен 2024-07-03 21:36
Информация о фильме Название: Священный танец Оригинальное название: Fancy Dance Год выхода: 2023 Жанр: Драма Режиссер: Эрика Тремблэ В ролях: Лили Глэдстоун, Изабель Дерой-Олсон, Ши Уигэм, Одри Василевски, Арайнна Мартин, Бегай Райан, Кристл Лайтнинг, Тамара Подемски, Патрис Фишер, Лилиан Фэй Томас, Тайлер Типтон, Деннис Ньюман, Трей Мунден, Колин Элизабет Миллер, Кори Харт, Кэйси Кэмп-Хоринек, Блейк Блэр Описание: После загадочного исчезновения сестры Джекс заботится о ее маленькой дочери Роки. Они живут в резервации, едва сводя концы с концами. Каждую свободную минуту Джекс тратит на поиски пропавшей сестры, а также помогает племяннице подготовиться к грядущему индейскому празднику. Страна: США Студия: AUM Group, Confluential Films, Creative Producing Lab, Directors' Lab, Indigenous Intensive, Significant Productions, The Sundance Screenwriters' Lab Продолжительность: 01:31:35 Перевод: Профессиональный (многоголосый, закадровый) | HDRezka Studio | Субтитры: Русские (Forced, Full), Английские Файл Формат: Matroska Качество: WEB-DL 720p | ATVP Видео: 1302x704 at 23.976 fps, MPEG-4 AVC, ~2812 kbps Аудио 1: AC3, 2 ch, ~192 kbps - | Русский | Аудио 2: E-AC-3 JOC, 6 ch, ~768 kbps - | Английский | Формат субтитров: softsub (SRT)
[+] M/IGeneral Unique ID : 303048590607453427444063795192681312812 (0xE3FD09183365090A2A93B69BE975B22C) Complete name : U:Fancy.Dance.2023.ATVP.WEB-DL.720p.x264.seleZen.mkv Format : Matroska Format version : Version 4 File size : 2.41 GiB Duration : 1 h 31 min Overall bit rate : 3 774 kb/s Frame rate : 23.976 FPS Movie name : Fancy.Dance.2023.ATVP.WEB-DL.720p.x264.seleZen Encoded date : 2024-07-02 10:32:52 UTC Writing application : mkvmerge v85.0 ('Shame For You') 64-bit Writing library : libebml v1.4.5 + libmatroska v1.7.1 Cover : Yes Attachments : cover.jpg / small_cover.jpg Video ID : 1 Format : AVC Format/Info : Advanced Video Codec Format profile : High@L3.2 Format settings : CABAC / 5 Ref Frames Format settings, CABAC : Yes Format settings, Reference : 5 frames Format settings, Slice coun : 8 slices per frame Codec ID : V_MPEG4/ISO/AVC Duration : 1 h 31 min Bit rate : 2 812 kb/s Width : 1 302 pixels Height : 704 pixels Display aspect ratio : 1.85:1 Frame rate mode : Constant Frame rate : 23.976 (24000/1001) FPS Color space : YUV Chroma subsampling : 4:2:0 Bit depth : 8 bits Scan type : Progressive Bits/(Pixel*Frame) : 0.128 Stream size : 1.80 GiB (74%) Title : -=DoMiNo=- Language : English Default : Yes Forced : No Color range : Limited Color primaries : BT.709 Transfer characteristics : BT.709 Matrix coefficients : BT.709 Audio #1 ID : 2 Format : AC-3 Format/Info : Audio Coding 3 Commercial name : Dolby Digital Codec ID : A_AC3 Duration : 1 h 31 min Bit rate mode : Constant Bit rate : 192 kb/s Channel(s) : 2 channels Channel layout : L R Sampling rate : 48.0 kHz Frame rate : 31.250 FPS (1536 SPF) Compression mode : Lossy Stream size : 126 MiB (5%) Title : MVO - HDRezka Language : Russian Service kind : Complete Main Default : Yes Forced : No Dialog Normalization : -31 dB dialnorm_Average : -31 dB dialnorm_Minimum : -31 dB dialnorm_Maximum : -31 dB Audio #2 ID : 3 Format : E-AC-3 JOC Format/Info : Enhanced AC-3 with Joint Object Coding Commercial name : Dolby Digital Plus with Dolby Atmos Codec ID : A_EAC3 Duration : 1 h 31 min Bit rate mode : Constant Bit rate : 768 kb/s Channel(s) : 6 channels Channel layout : L R C LFE Ls Rs Sampling rate : 48.0 kHz Frame rate : 31.250 FPS (1536 SPF) Compression mode : Lossy Stream size : 503 MiB (20%) Language : English Service kind : Complete Main Default : No Forced : No Complexity index : 16 Number of dynamic objects : 15 Bed channel count : 1 channel Bed channel configuration : LFE Dialog Normalization : -27 dB compr : -0.28 dB dialnorm_Average : -27 dB dialnorm_Minimum : -27 dB dialnorm_Maximum : -27 dB Text #1 ID : 4 Format : UTF-8 Codec ID : S_TEXT/UTF8 Codec ID/Info : UTF-8 Plain Text Duration : 1 h 17 min Bit rate : 2 b/s Frame rate : 0.005 FPS Count of elements : 25 Stream size : 1.33 KiB (0%) Title : Forced Language : Russian Default : No Forced : No Text #2 ID : 5 Format : UTF-8 Codec ID : S_TEXT/UTF8 Codec ID/Info : UTF-8 Plain Text Duration : 1 h 29 min Bit rate : 61 b/s Frame rate : 0.166 FPS Count of elements : 894 Stream size : 40.7 KiB (0%) Title : Full Language : Russian Default : No Forced : No Text #3 ID : 6 Format : UTF-8 Codec ID : S_TEXT/UTF8 Codec ID/Info : UTF-8 Plain Text Duration : 1 h 13 min Bit rate : 2 b/s Frame rate : 0.019 FPS Count of elements : 84 Stream size : 1.62 KiB (0%) Title : Forced Language : English Default : No Forced : No Text #4 ID : 7 Format : UTF-8 Codec ID : S_TEXT/UTF8 Codec ID/Info : UTF-8 Plain Text Duration : 1 h 24 min Bit rate : 45 b/s Frame rate : 0.177 FPS Count of elements : 894 Stream size : 27.9 KiB (0%) Language : English Default : No Forced : No Text #5 ID : 8 Format : UTF-8 Codec ID : S_TEXT/UTF8 Codec ID/Info : UTF-8 Plain Text Duration : 1 h 25 min Bit rate : 50 b/s Frame rate : 0.198 FPS Count of elements : 1016 Stream size : 31.9 KiB (0%) Title : SDH Language : English Default : No Forced : No Menu 00:00:00.000 : en:Studio Logo 00:00:08.843 : en:Main 01:27:25.791 : en:Credits
Релиз: Присоединяйся к: Кликай на баннеры.

Всего файлов в раздаче: 1 
Fancy.Dance.2023.ATVP.WEB-DL.720p.x264.seleZen.mkv2.41 GB

Похожие раздачи по запросу - Священный
2024-07-03 magnet Священный танец / Fancy Dance (2023) WEB-DLRip-AVC | P | HDRezka Studio 1.61 GB ↑ 1 ↓ 0
2024-07-03 magnet Священный танец / Fancy Dance (2023) WEB-DLRip от DoMiNo & селезень | P | HDRezka Studio 1.37 GB ↑ 0 ↓ 0
2024-07-02 magnet Священный танец / Fancy Dance (2023) WEB-DL 1080p от New-Team | P | HDRezka Studio 6.97 GB ↑ 0 ↓ 0
2024-07-02 magnet Священный танец / Fancy Dance (2023) WEB-DLRip от MegaPeer | P | HDRezka Studio 1.46 GB ↑ 0 ↓ 0

Комментарии


Зарегистрируйтесь чтобы добавить комментарий
Торрент клиент
byTorrent - программа для загрузки торрент-файлов.

Скачать byTorrent.exe (1,5 МБ)

Скачать byTorrent.zip (0,6 МБ)

Поддержи torrent.by
российских рублей
(300 российских рублей это 4$)

Обратная связь rss

End game ©