↑↓torrent.by
Поиск
Логин:  Регистрация
Пароль:

Тёмная материя / Dark Matter [S01] (2024) UHD WEB-DL 2160p | 4K | HDR | Dolby Vision Profile 8 | P

download Скачать торрент-файл   magnet Магнитная ссылка Размер: 98.97 GB Раздают: 0 Качают: 1 Добавлен: 2024-07-02 17:00
Пиры будут получены из сети DHT
Последний сидер был замечен вчера в 20:53
Название: Тёмная материя Оригинальное название: Dark Matter Год выхода: 2024 Производство: США / Matt Tolmach Productions, Sony Pictures Television Жанр: Фантастика, триллер, драма Перевод: Профессиональный многоголосый Продолжительность: 09х ~00:50:00 Режиссёры: Якоб Вербрюгген, Роксанн Доусон, Логан Джордж, Селин Хелд, Алик Сахаров В ролях: Джоэл Эдгертон, Дженнифер Коннелли, Оукс Фегли, Алиси Брага, Джимми Симпсон, Дайо Окенийи, Аманда Бругел, Джимми Стикс Описание: Физик Джейсон Дессен из Чикаго оказывается в альтернативной версии свой жизни. Чтобы вернуться к своей семье, он должен будет пройти через ряд параллельных реальностей и столкнуться с альтернативной версией самого себя. Формат: MKV Качество: WEB-DL 2160p Видео: MPEGH HEVC / ~24,3 Mbps / 3840x1920 / 0.138 Бит/(Пиксели*Кадры) / 23.976 fps Аудио 01: E-AC3, 6 ch, 768 kbps | Русский, MVO | Jaskier | Аудио 02: E-AC3, 6 ch, 768 kbps | Русский, MVO | HDRezka Studio | Аудио 03: E-AC3, 6 ch, 768 kbps | Русский, MVO | LostFilm | Аудио 04: AC-3, 6 ch, 448 kbps | Русский, MVO | TVShows | Аудио 05: AC-3, 2 ch, 192 kbps | Русский, MVO | Red Head Sound | Аудио 06: E-AC3, 6 ch, 768 kbps | Русский, MVO | NewComers | Аудио 07: E-AC3, 6 ch, 768 kbps | Украинский, MVO | DniproFilm | Аудио 08: AC-3, 2 ch, 192 kbps | Украинский, MVO | Интересная Идея | Аудио 09: E-AC3 JOC, 6 ch, 768 kbps | Английский | Субтитры: Русские (Forced, Full), Английские (Full, SDH)
[+] MediainfoGeneral Unique ID : 330792372020279109960575760082915687782 (0xF8DC4B2083937CA8DBCB6763CA29FD66) Complete name : D:Download TorrentsDark.Matter.S01.2160p.AMZN.WEB-DL.DDP5.1.Atmos.DV.HDR-DVTDark.Matter.S01E01.2160p.AMZN.WEB-DL.DDP5.1.Atmos.DV.HDR-DVT.mkv Format : Matroska Format version : Version 4 File size : 9.63 GiB Duration : 46 min 15 s Overall bit rate : 29.8 Mb/s Frame rate : 23.976 FPS Movie name : Dark Matter (2024) - Release by DVT Encoded date : 2024-05-27 12:51:07 UTC Writing application : mkvmerge v84.0 ('Sleeper') 64-bit Writing library : libebml v1.4.5 + libmatroska v1.7.1 Cover : Yes Attachments : COVER.jpg Video ID : 1 Format : HEVC Format/Info : High Efficiency Video Coding Format profile : Main 10@L5@High HDR format : Dolby Vision, Version 1.0, Profile 8.1, dvhe.08.06, BL+RPU, no metadata compression, HDR10 compatible / SMPTE ST 2094 App 4, Version HDR10+ Profile B, HDR10+ Profile B compatible Codec ID : V_MPEGH/ISO/HEVC Duration : 46 min 15 s Bit rate : 24.3 Mb/s Width : 3 840 pixels Height : 1 920 pixels Display aspect ratio : 2.000 Frame rate mode : Constant Frame rate : 23.976 FPS Color space : YUV Chroma subsampling : 4:2:0 (Type 2) Bit depth : 10 bits Bits/(Pixel*Frame) : 0.138 Stream size : 7.87 GiB (82%) Title : Dark Matter (2024) Language : English Default : Yes Forced : No Color range : Limited Color primaries : BT.2020 Transfer characteristics : PQ Matrix coefficients : BT.2020 non-constant Mastering display color primaries : Display P3 Mastering display luminance : min: 0.0050 cd/m2, max: 1000 cd/m2 Maximum Content Light Level : 809 cd/m2 Maximum Frame-Average Light Level : 187 cd/m2 Audio #1 ID : 2 Format : E-AC-3 Format/Info : Enhanced AC-3 Commercial name : Dolby Digital Plus Codec ID : A_EAC3 Duration : 46 min 15 s Bit rate mode : Constant Bit rate : 768 kb/s Channel(s) : 6 channels Channel layout : L R C LFE Ls Rs Sampling rate : 48.0 kHz Frame rate : 31.250 FPS (1536 SPF) Compression mode : Lossy Stream size : 254 MiB (3%) Title : MVO, Jaskier Language : Russian Service kind : Complete Main Default : Yes Forced : No Dialog Normalization : -27 dB compr : -0.28 dB mixlevel : 105 dB dmixmod : Lo/Ro ltrtcmixlev : -3.0 dB ltrtsurmixlev : -3.0 dB lorocmixlev : -3.0 dB lorosurmixlev : -3.0 dB dialnorm_Average : -27 dB dialnorm_Minimum : -27 dB dialnorm_Maximum : -27 dB Audio #2 ID : 3 Format : E-AC-3 Format/Info : Enhanced AC-3 Commercial name : Dolby Digital Plus Codec ID : A_EAC3 Duration : 46 min 15 s Bit rate mode : Constant Bit rate : 768 kb/s Channel(s) : 6 channels Channel layout : L R C LFE Ls Rs Sampling rate : 48.0 kHz Frame rate : 31.250 FPS (1536 SPF) Compression mode : Lossy Stream size : 254 MiB (3%) Title : MVO, HDRezka Studio Language : Russian Service kind : Complete Main Default : No Forced : No Dialog Normalization : -27 dB compr : -0.28 dB mixlevel : 105 dB dmixmod : Lo/Ro ltrtcmixlev : -3.0 dB ltrtsurmixlev : -3.0 dB lorocmixlev : -3.0 dB lorosurmixlev : -3.0 dB dialnorm_Average : -27 dB dialnorm_Minimum : -27 dB dialnorm_Maximum : -27 dB Audio #3 ID : 4 Format : E-AC-3 Format/Info : Enhanced AC-3 Commercial name : Dolby Digital Plus Codec ID : A_EAC3 Duration : 46 min 15 s Bit rate mode : Constant Bit rate : 768 kb/s Channel(s) : 6 channels Channel layout : L R C LFE Ls Rs Sampling rate : 48.0 kHz Frame rate : 31.250 FPS (1536 SPF) Compression mode : Lossy Stream size : 254 MiB (3%) Title : MVO, LostFilm Language : Russian Service kind : Complete Main Default : No Forced : No Dialog Normalization : -27 dB compr : -0.28 dB mixlevel : 105 dB dmixmod : Lo/Ro ltrtcmixlev : -3.0 dB ltrtsurmixlev : -3.0 dB lorocmixlev : -3.0 dB lorosurmixlev : -3.0 dB dialnorm_Average : -27 dB dialnorm_Minimum : -27 dB dialnorm_Maximum : -27 dB Audio #4 ID : 5 Format : AC-3 Format/Info : Audio Coding 3 Commercial name : Dolby Digital Codec ID : A_AC3 Duration : 46 min 15 s Bit rate mode : Constant Bit rate : 448 kb/s Channel(s) : 6 channels Channel layout : L R C LFE Ls Rs Sampling rate : 48.0 kHz Frame rate : 31.250 FPS (1536 SPF) Compression mode : Lossy Stream size : 148 MiB (2%) Title : MVO, TVShows Language : Russian Service kind : Complete Main Default : No Forced : No Dialog Normalization : -31 dB cmixlev : -4.5 dB surmixlev : -6 dB dialnorm_Average : -31 dB dialnorm_Minimum : -31 dB dialnorm_Maximum : -31 dB Audio #5 ID : 6 Format : AC-3 Format/Info : Audio Coding 3 Commercial name : Dolby Digital Codec ID : A_AC3 Duration : 46 min 15 s Bit rate mode : Constant Bit rate : 192 kb/s Channel(s) : 2 channels Channel layout : L R Sampling rate : 48.0 kHz Frame rate : 31.250 FPS (1536 SPF) Compression mode : Lossy Stream size : 63.5 MiB (1%) Title : MVO, Red Head Sound Language : Russian Service kind : Complete Main Default : No Forced : No Dialog Normalization : -26 dB compr : -0.28 dB ltrtcmixlev : -3.0 dB ltrtsurmixlev : -3.0 dB lorocmixlev : -3.0 dB lorosurmixlev : -3.0 dB dialnorm_Average : -26 dB dialnorm_Minimum : -26 dB dialnorm_Maximum : -26 dB Audio #6 ID : 7 Format : E-AC-3 Format/Info : Enhanced AC-3 Commercial name : Dolby Digital Plus Codec ID : A_EAC3 Duration : 46 min 15 s Bit rate mode : Constant Bit rate : 768 kb/s Channel(s) : 6 channels Channel layout : L R C LFE Ls Rs Sampling rate : 48.0 kHz Frame rate : 31.250 FPS (1536 SPF) Compression mode : Lossy Stream size : 254 MiB (3%) Title : MVO, NewComers Language : Russian Service kind : Complete Main Default : No Forced : No Dialog Normalization : -27 dB compr : -0.28 dB mixlevel : 105 dB dmixmod : Lo/Ro ltrtcmixlev : -3.0 dB ltrtsurmixlev : -3.0 dB lorocmixlev : -3.0 dB lorosurmixlev : -3.0 dB dialnorm_Average : -27 dB dialnorm_Minimum : -27 dB dialnorm_Maximum : -27 dB Audio #7 ID : 8 Format : E-AC-3 Format/Info : Enhanced AC-3 Commercial name : Dolby Digital Plus Codec ID : A_EAC3 Duration : 46 min 15 s Bit rate mode : Constant Bit rate : 768 kb/s Channel(s) : 6 channels Channel layout : L R C LFE Ls Rs Sampling rate : 48.0 kHz Frame rate : 31.250 FPS (1536 SPF) Compression mode : Lossy Stream size : 254 MiB (3%) Title : MVO, DniproFilm/HDRezka Studio Language : Ukrainian Service kind : Complete Main Default : No Forced : No Dialog Normalization : -27 dB compr : -0.28 dB mixlevel : 105 dB dmixmod : Lo/Ro ltrtcmixlev : -3.0 dB ltrtsurmixlev : -3.0 dB lorocmixlev : -3.0 dB lorosurmixlev : -3.0 dB dialnorm_Average : -27 dB dialnorm_Minimum : -27 dB dialnorm_Maximum : -27 dB Audio #8 ID : 9 Format : AC-3 Format/Info : Audio Coding 3 Commercial name : Dolby Digital Codec ID : A_AC3 Duration : 46 min 15 s Bit rate mode : Constant Bit rate : 192 kb/s Channel(s) : 2 channels Channel layout : L R Sampling rate : 48.0 kHz Frame rate : 31.250 FPS (1536 SPF) Compression mode : Lossy Stream size : 63.5 MiB (1%) Title : MVO, Цікава Ідея Language : Ukrainian Service kind : Complete Main Default : No Forced : No Dialog Normalization : -31 dB compr : -0.28 dB mixlevel : 281 dB roomtyp : 3 ltrtcmixlev : -3.0 dB ltrtsurmixlev : -3.0 dB lorocmixlev : -3.0 dB lorosurmixlev : -3.0 dB dialnorm_Average : -31 dB dialnorm_Minimum : -31 dB dialnorm_Maximum : -31 dB Audio #9 ID : 10 Format : E-AC-3 Format/Info : Enhanced AC-3 Commercial name : Dolby Digital Plus Codec ID : A_EAC3 Duration : 46 min 15 s Bit rate mode : Constant Bit rate : 768 kb/s Channel(s) : 6 channels Channel layout : L R C LFE Ls Rs Sampling rate : 48.0 kHz Frame rate : 31.250 FPS (1536 SPF) Compression mode : Lossy Stream size : 254 MiB (3%) Title : Original Language : English Service kind : Complete Main Default : No Forced : No Dialog Normalization : -31 dB dialnorm_Average : -31 dB dialnorm_Minimum : -31 dB dialnorm_Maximum : -31 dB Text #1 ID : 11 Format : UTF-8 Codec ID : S_TEXT/UTF8 Codec ID/Info : UTF-8 Plain Text Duration : 40 min 49 s Bit rate : 3 b/s Frame rate : 0.007 FPS Count of elements : 16 Stream size : 986 Bytes (0%) Title : Forced, HDRezka Studio Language : Russian Default : No Forced : No Text #2 ID : 12 Format : UTF-8 Codec ID : S_TEXT/UTF8 Codec ID/Info : UTF-8 Plain Text Duration : 44 min 14 s Bit rate : 61 b/s Frame rate : 0.177 FPS Count of elements : 471 Stream size : 19.9 KiB (0%) Title : Full, AppleTV Language : Russian Default : No Forced : No Text #3 ID : 13 Format : UTF-8 Codec ID : S_TEXT/UTF8 Codec ID/Info : UTF-8 Plain Text Duration : 45 min 54 s Bit rate : 76 b/s Frame rate : 0.213 FPS Count of elements : 587 Stream size : 25.9 KiB (0%) Title : SDH, AppleTV Language : Russian Default : No Forced : No Text #4 ID : 14 Format : UTF-8 Codec ID : S_TEXT/UTF8 Codec ID/Info : UTF-8 Plain Text Duration : 45 min 8 s Bit rate : 56 b/s Frame rate : 0.189 FPS Count of elements : 511 Stream size : 18.6 KiB (0%) Title : Full, NewComers Language : Russian Default : No Forced : No Text #5 ID : 15 Format : UTF-8 Codec ID : S_TEXT/UTF8 Codec ID/Info : UTF-8 Plain Text Duration : 38 min 11 s Bit rate : 2 b/s Frame rate : 0.007 FPS Count of elements : 17 Stream size : 719 Bytes (0%) Title : Forced, Цікава Ідея Language : Ukrainian Default : No Forced : No Text #6 ID : 16 Format : UTF-8 Codec ID : S_TEXT/UTF8 Codec ID/Info : UTF-8 Plain Text Duration : 44 min 14 s Bit rate : 61 b/s Frame rate : 0.177 FPS Count of elements : 470 Stream size : 20.0 KiB (0%) Title : Full, AppleTV Language : Ukrainian Default : No Forced : No Text #7 ID : 17 Format : UTF-8 Codec ID : S_TEXT/UTF8 Codec ID/Info : UTF-8 Plain Text Duration : 44 min 57 s Bit rate : 51 b/s Frame rate : 0.210 FPS Count of elements : 566 Stream size : 17.0 KiB (0%) Title : SDH, AppleTV Language : Ukrainian Default : No Forced : No Text #8 ID : 18 Format : UTF-8 Codec ID : S_TEXT/UTF8 Codec ID/Info : UTF-8 Plain Text Duration : 42 min 32 s Bit rate : 43 b/s Frame rate : 0.176 FPS Count of elements : 450 Stream size : 13.5 KiB (0%) Title : Full Language : English Default : No Forced : No Text #9 ID : 19 Format : UTF-8 Codec ID : S_TEXT/UTF8 Codec ID/Info : UTF-8 Plain Text Duration : 44 min 57 s Bit rate : 53 b/s Frame rate : 0.210 FPS Count of elements : 566 Stream size : 17.7 KiB (0%) Title : SDH Language : English Default : No Forced : No Menu 00:00:00.000 : en:Studio Logo 00:00:08.843 : en:Main 00:45:10.833 : en:Credits
[+] Скриншоты

Всего файлов в раздаче: 9 
Dark.Matter.S01E01.2160p.AMZN.WEB-DL.DDP5.1.Atmos.DV.HDR-DVT.mkv9.63 GB
Dark.Matter.S01E02.2160p.AMZN.WEB-DL.DDP5.1.Atmos.DV.HDR-DVT.mkv11.13 GB
Dark.Matter.S01E03.2160p.AMZN.WEB-DL.DDP5.1.Atmos.DV.HDR-DVT.mkv10.35 GB
Dark.Matter.S01E04.2160p.AMZN.WEB-DL.DDP5.1.Atmos.DV.HDR-DVT.mkv12.54 GB
Dark.Matter.S01E05.2160p.AMZN.WEB-DL.DDP5.1.Atmos.DV.HDR-DVT.mkv11.60 GB
Dark.Matter.S01E06.2160p.AMZN.WEB-DL.DDP5.1.Atmos.DV.HDR-DVT.mkv11.39 GB
Dark.Matter.S01E07.2160p.AMZN.WEB-DL.DDP5.1.Atmos.DV.HDR-DVT.mkv10.66 GB
Dark.Matter.S01E08.2160p.AMZN.WEB-DL.DDP5.1.Atmos.DV.HDR-DVT.mkv9.78 GB
Dark.Matter.S01E09.2160p.AMZN.WEB-DL.DDP5.1.Atmos.DV.HDR-DVT.mkv11.89 GB

Похожие раздачи по запросу - Тёмная
2024-07-05 magnet Тёмная материя / Dark Matter [S01] (2024) WEB-DL 720p | P 27.41 GB ↑ 0 ↓ 3
2024-07-03 magnet Тёмная материя / Dark Matter [S01] (2024) WEB-DLRip-AVC | КПК | Jaskier 2.21 GB ↑ 0 ↓ 0
2024-07-03 magnet Темная половина / The Dark Half (1993) HDTV 1080i от HDClub 7.71 GB ↑ 0 ↓ 0
2024-07-03 magnet Темная половина / The Dark Half (1993) BDRip от HQCLUB 2.67 GB ↑ 0 ↓ 0
2024-07-02 magnet Тёмная материя / Dark Matter [S01] (2024) WEB-DL 720p | P 27.09 GB ↑ 0 ↓ 1
2024-07-02 magnet Тёмная материя / Dark Matter [S01] (2024) WEB-DL 1080p | HDrezka Studio, LostFilm, NewComers, TVShows, Red Head Sound 42.65 GB ↑ 0 ↓ 4
2024-07-01 magnet Тёмная материя / Dark Matter [S01] (2024) WEB-DLRip | LostFilm 6.66 GB ↑ 0 ↓ 2

Комментарии


Зарегистрируйтесь чтобы добавить комментарий
Торрент клиент
byTorrent - программа для загрузки торрент-файлов.

Скачать byTorrent.exe (1,5 МБ)

Скачать byTorrent.zip (0,6 МБ)

Поддержи torrent.by
российских рублей
(300 российских рублей это 4$)

Обратная связь rss

End game ©