↑↓torrent.by
Поиск
Логин:  Регистрация
Пароль:

Священный танец / Fancy Dance (2023) WEB-DL 1080p от New-Team | P | HDRezka Studio

download Скачать торрент-файл   magnet Магнитная ссылка Размер: 6.97 GB Добавлен: 2024-07-02 17:00
Пиры будут получены из сети DHT
Последний сидер был замечен 2024-07-02 19:59
Священный танец / Fancy Dance Год выпуска: 2023 Выпущено: США / AUM Group, Confluential Films, Creative Producing Lab, Directors' Lab, Indigenous Intensive, Significant Productions, The Sundance Screenwriters' Lab Жанр: драма Режиссер: Эрика Тремблэ / Erica Tremblay В ролях: Лили Глэдстоун, Изабель Дерой-Олсон, Ши Уигэм, Одри Василевски, Арайнна Мартин, Бегай Райан, Кристл Лайтнинг, Тамара Подемски, Патрис Фишер, Лилиан Фэй Томас, Тайлер Типтон, Деннис Ньюман, Трей Мунден, Колин Элизабет Миллер, Кори Харт, Кэйси Кэмп-Хоринек, Блейк Блэр О фильме: После загадочного исчезновения сестры Джекс заботится о ее маленькой дочери Роки. Они живут в резервации, едва сводя концы с концами. Каждую свободную минуту Джекс тратит на поиски пропавшей сестры, а также помогает племяннице подготовиться к грядущему индейскому празднику. Продолжительность: 01:31:35 Перевод: Профессиональный (многоголосый, закадровый) | HDRezka Studio Субтитры: Русские (forced, full), английские (forced, full, SDH) Раздача от : Формат: MKV Качество: WEB-DL 1080p | ATVP Видео: MPEG-4 AVC, (1,85:1), 1920x1038, 9939 Кбит/с, 23,976 fps Аудио #1: 48 kHz, AC3 Dolby Digital, 2/0 (L,R) ch, ~ 192 kbps | RUS | Аудио #2: 48 kHz, E-AC3 JOC Dolby Digital, 3/2 (L,C,R,l,r) + LFE ch, ~ 768 kbps | ENG |
[+] MediaInfoОбщее Уникальный идентификатор : 7213080543130471812877730207853541203 (0x56D3053F26CFD3E45C10FAEA34D7753) Полное имя : D:TorrentsFancy.Dance.2024.1080p.ATVP_от New-Team.mkv Формат : Matroska Версия формата : Version 4 Размер файла : 6,97 Гбайт Продолжительность : 1 ч. 31 м. Общий поток : 10,9 Мбит/сек Название фильма : Fancy.Dance.2024.1080p.ATVP_от New-Team Дата кодирования : UTC 2024-07-02 07:19:55 Программа кодирования : mkvmerge v79.0 ('Funeral Pyres') 64-bit Библиотека кодирования : libebml v1.4.4 + libmatroska v1.7.1 Видео Идентификатор : 1 Формат : AVC Формат/Информация : Advanced Video Codec Профиль формата : High@L4 Настройки формата : CABAC / 4 Ref Frames Параметр CABAC формата : Да Параметр RefFrames формата : 4 кадра Идентификатор кодека : V_MPEG4/ISO/AVC Продолжительность : 1 ч. 31 м. Битрейт : 9 939 Кбит/сек Ширина : 1 920 пикселей Высота : 1 038 пикселей Соотношение сторон : 1,85:1 Режим частоты кадров : Постоянный Частота кадров : 23,976 (24000/1001) кадра/сек Цветовое пространство : YUV Субдискретизация насыщенности : 4:2:0 Битовая глубина : 8 бит Тип развёртки : Прогрессивная Бит/(Пиксели*Кадры) : 0.208 Размер потока : 6,36 Гбайт (91%) Язык : English Default : Да Forced : Нет Цветовой диапазон : Limited Основные цвета : BT.709 Характеристики трансфера : BT.709 Коэффициенты матрицы : BT.709 Аудио #1 Идентификатор : 2 Формат : AC-3 Формат/Информация : Audio Coding 3 Коммерческое название : Dolby Digital Идентификатор кодека : A_AC3 Продолжительность : 1 ч. 31 м. Вид битрейта : Постоянный Битрейт : 192 Кбит/сек Каналы : 2 канала Channel layout : L R Частота : 48,0 КГц Частота кадров : 31,250 кадров/сек (1536 SPF) Метод сжатия : С потерями Размер потока : 126 Мбайт (2%) Заголовок : MVO - HDRezka Studio Язык : Russian Service kind : Complete Main Default : Да Forced : Нет Аудио #2 Идентификатор : 3 Формат : E-AC-3 JOC Формат/Информация : Enhanced AC-3 with Joint Object Coding Коммерческое название : Dolby Digital Plus with Dolby Atmos Идентификатор кодека : A_EAC3 Продолжительность : 1 ч. 31 м. Вид битрейта : Постоянный Битрейт : 768 Кбит/сек Каналы : 6 каналов Channel layout : L R C LFE Ls Rs Частота : 48,0 КГц Частота кадров : 31,250 кадров/сек (1536 SPF) Метод сжатия : С потерями Размер потока : 503 Мбайт (7%) Заголовок : Original Язык : English Service kind : Complete Main Default : Нет Forced : Нет Complexity index : 16 Number of dynamic objects : 15 Bed channel count : 1 канал Bed channel configuration : LFE Текст #1 Идентификатор : 4 Формат : UTF-8 Идентификатор кодека : S_TEXT/UTF8 Идентификатор кодека/Информация : UTF-8 Plain Text Продолжительность : 1 ч. 17 м. Битрейт : 2 бит/сек Count of elements : 25 Размер потока : 1,36 Кбайт (0%) Заголовок : Язык : Russian Default : Да Forced : Нет Текст #2 Идентификатор : 5 Формат : UTF-8 Идентификатор кодека : S_TEXT/UTF8 Идентификатор кодека/Информация : UTF-8 Plain Text Продолжительность : 1 ч. 29 м. Битрейт : 62 бит/сек Count of elements : 894 Размер потока : 40,9 Кбайт (0%) Заголовок : Язык : Russian Default : Нет Forced : Нет Текст #3 Идентификатор : 6 Формат : UTF-8 Идентификатор кодека : S_TEXT/UTF8 Идентификатор кодека/Информация : UTF-8 Plain Text Продолжительность : 1 ч. 13 м. Битрейт : 2 бит/сек Count of elements : 83 Размер потока : 1,61 Кбайт (0%) Заголовок : Язык : English Default : Нет Forced : Нет Текст #4 Идентификатор : 7 Формат : UTF-8 Идентификатор кодека : S_TEXT/UTF8 Идентификатор кодека/Информация : UTF-8 Plain Text Продолжительность : 1 ч. 24 м. Битрейт : 45 бит/сек Count of elements : 894 Размер потока : 27,9 Кбайт (0%) Заголовок : Язык : English Default : Нет Forced : Нет Текст #5 Идентификатор : 8 Формат : UTF-8 Идентификатор кодека : S_TEXT/UTF8 Идентификатор кодека/Информация : UTF-8 Plain Text Продолжительность : 1 ч. 25 м. Битрейт : 50 бит/сек Count of elements : 1016 Размер потока : 31,9 Кбайт (0%) Заголовок : Язык : English Default : Нет Forced : Нет Меню 00:00:00.000 : en:Studio Logo 00:00:08.843 : en:Main 01:27:25.791 : en:Credits

Всего файлов в раздаче: 1 
Fancy.Dance.2024.1080p.ATVP_от New-Team.mkv6.97 GB

Похожие раздачи по запросу - Священный
2024-07-03 magnet Священный танец / Fancy Dance (2023) WEB-DLRip-AVC | P | HDRezka Studio 1.61 GB ↑ 1 ↓ 0
2024-07-03 magnet Священный танец / Fancy Dance (2023) WEB-DLRip от DoMiNo & селезень | P | HDRezka Studio 1.37 GB ↑ 0 ↓ 1
2024-07-02 magnet Священный танец / Fancy Dance (2023) WEB-DL 720p от селезень | P | HDRezka Studio 2.41 GB ↑ 0 ↓ 0
2024-07-02 magnet Священный танец / Fancy Dance (2023) WEB-DLRip от MegaPeer | P | HDRezka Studio 1.46 GB ↑ 0 ↓ 0

Комментарии


Зарегистрируйтесь чтобы добавить комментарий
Торрент клиент
byTorrent - программа для загрузки торрент-файлов.

Скачать byTorrent.exe (1,5 МБ)

Скачать byTorrent.zip (0,6 МБ)

Поддержи torrent.by
российских рублей
(300 российских рублей это 4$)

Обратная связь rss

End game ©