↑↓torrent.by
Поиск
Логин:  Регистрация
Пароль:

Чистые [01х01-03 из 08] (2024) WEBRip-AVC от Generalfilm | КПК

download Скачать торрент-файл   magnet Магнитная ссылка Размер: 538.66 MB Добавлен: 2024-07-02 17:00
Пиры будут получены из сети DHT
Последний сидер был замечен 2024-07-03 22:16
Информация о фильме Оригинальное название: Чистые Год выпуска: 2024 Жанр: Триллер, драма Режиссер: Николай Хомерики В ролях: Фёдор Бондарчук, Виктория Исакова, Софья Синицына, Диана Милютина, Даниил Воробьёв, Никита Кологривый, Борис Каморзин, Евгений Харитонов, Риналь Мухаметов, Марк Эйдельштейн О сериале: Петербург, 1903 год. Мир роскоши и досуга для мужчин, мир страха и подчинения для женщин. Ксения и Стеша работают в подпольном доме терпимости под контролем благообразной и безжалостной дамы. Девушки продают мужчинам тело, чувства, флирт и иллюзию любви. Кажется, кроме красоты у них ничего нет. На самом же деле им доступна тайная сила — чистота души и желание свободы. И этой силой они смогут изменить все. Страна: Россия Студия: Кинокомпания "Всемирные Русские Студии" Продолжительность: 3 x ~ 00:40:00 Перевод: Не требуется Файл Формат: MP4 Качество: WEBRip-AVC Видео: MPEG-4 AVC (x264), 640x320, ~ 500 kbps, 25.000 fps Аудио: AAC LC, 48.0 KHz, 2 ch, 128 Kbps Субтитры: Нет
[+] Скриншоты
[+] MIComplete name : D:киноCHistye.S01.2024.WEBRip-AVC.KPK.GFCHistye.s01e02.2024.WEBRip-AVC.KPK.GF.mp4 Format : MPEG-4 Codec ID : M4V (isom/iso2/avc1) File size : 195 MiB Duration : 43mn 0s Overall bit rate mode : Variable Overall bit rate : 634 Kbps Writing application : Lavf53.19.0 Video ID : 1 Format : AVC Format/Info : Advanced Video Codec Format profile : High@L4.1 Format settings, CABAC : Yes Format settings, ReFrames : 8 frames Codec ID : avc1 Codec ID/Info : Advanced Video Coding Duration : 43mn 0s Bit rate : 500 Kbps Width : 640 pixels Height : 320 pixels Display aspect ratio : 2.000 Frame rate mode : Constant Frame rate : 25.000 fps Color space : YUV Chroma subsampling : 4:2:0 Bit depth : 8 bits Scan type : Progressive Bits/(Pixel*Frame) : 0.098 Stream size : 154 MiB (79%) Writing library : x264 core 146 r2538 121396c Encoding settings : cabac=1 / ref=8 / deblock=1:-1:-1 / analyse=0x3:0x133 / me=umh / subme=10 / psy=1 / psy_rd=1.00:0.00 / mixed_ref=1 / me_range=24 / chroma_me=1 / trellis=2 / 8x8dct=1 / cqm=0 / deadzone=21,11 / fast_pskip=1 / chroma_qp_offset=-2 / threads=3 / lookahead_threads=1 / sliced_threads=0 / nr=0 / decimate=1 / interlaced=0 / bluray_compat=0 / constrained_intra=0 / bframes=8 / b_pyramid=2 / b_adapt=2 / b_bias=0 / direct=3 / weightb=1 / open_gop=0 / weightp=2 / keyint=250 / keyint_min=126 / scenecut=40 / intra_refresh=0 / rc_lookahead=40 / rc=2pass / mbtree=1 / bitrate=500 / ratetol=1.0 / qcomp=0.60 / qpmin=0 / qpmax=69 / qpstep=4 / cplxblur=20.0 / qblur=0.5 / ip_ratio=1.40 / aq=1:1.00 Menus : 3 Audio ID : 2 Format : AAC Format/Info : Advanced Audio Codec Format profile : LC Codec ID : 40 Duration : 43mn 0s Bit rate mode : Variable Bit rate : 128 Kbps Channel(s) : 2 channels Channel positions : Front: L R Sampling rate : 48.0 KHz Frame rate : 46.875 fps (1024 spf) Compression mode : Lossy Stream size : 39.3 MiB (20%) Default : Yes Alternate group : 1 Menus : 3
Релиз от:

Всего файлов в раздаче: 3 
CHistye.s01e01.2024.WEBRip-AVC.KPK.GF.mp4161.94 MB
CHistye.s01e02.2024.WEBRip-AVC.KPK.GF.mp4194.89 MB
CHistye.s01e03.2024.WEBRip-AVC.KPK.GF.mp4181.82 MB

Похожие раздачи по запросу - Чистые
Сегодня magnet Чистые [01x01-06 из 08] (2024) WEBRip 720p от ExKinoRay 5.18 GB ↑ 0 ↓ 0
Вчера magnet Чистые / Серии: 1-6 из 8 [2024, триллер, драма, WEBRip-AVC] от Aleksan55 3.56 GB ↑ 0 ↓ 0
Вчера magnet Чистые [01x01-06 из 08] (2024) WEBRip 1080p от ExKinoRay 7.76 GB ↑ 0 ↓ 0
2024-07-14 magnet Чистые [01x01-05 из 08] (2024) WEBRip 720p от ExKinoRay 4.24 GB ↑ 0 ↓ 0
2024-07-14 magnet Чистые [01-05 из 08] (2024) WEBRip от Files-x 2.93 GB ↑ 0 ↓ 0
2024-07-13 magnet Чистые [01x01-05 из 08] (2024) WEBRip 1080p от ExKinoRay 6.35 GB ↑ 0 ↓ 0
2024-07-11 magnet Чистые [01-04 из 08] (2024) WEBRip от Files-x 2.03 GB ↑ 0 ↓ 0

Комментарии


Зарегистрируйтесь чтобы добавить комментарий
Торрент клиент
byTorrent - программа для загрузки торрент-файлов.

Скачать byTorrent.exe (1,5 МБ)

Скачать byTorrent.zip (0,6 МБ)

Поддержи torrent.by
российских рублей
(300 российских рублей это 4$)

Обратная связь rss

End game ©