↑↓torrent.by
Поиск
Логин:  Регистрация
Пароль:

Я Селин Дион / I Am: Celine Dion (2024) WEB-DLRip от AR-Team | P | TVShows

download Скачать торрент-файл   magnet Магнитная ссылка Размер: 1.46 GB Добавлен: temaxa 2024-07-02 20:22
Пиры будут получены из сети DHT
Последний сидер был замечен 2024-07-13 05:13
Я Селин Дион / I Am: Celine Dion (2024) WEB-DLRip
Производство: Канада, США / Les Productions Feeling, Sony Music, Sony Music Entertainment Жанр: Документальный, биография, музыка Режиссер: Ирен Тейлор Бродски Актеры: Селин Дион, Рене Анжелила, Джеймс Корден, Джимми Фэллон, Джон Фарнэм, Нельсон Анжелил, Эдди Анжелил, Террилл Лобо, Денис Саваж, Дэйв Плател Описание: Фильм погружает зрителей в повседневную жизнь одной из величайших икон современной музыки. Селин Дион рассказывает о проблемах, с которыми столкнулась после диагноза болезни, изменившего жизнь певицы. Фильм затрагивает темы стойкости, любви и утраты, отдавая дань уважения страсти Селин Дион к музыке, которая всегда была ее самым верным спутником. Рейтинг MPAA: PG (рекомендуется присутствие родителей) Релиз от: AR-Team Продолжительность: 01:42:53 Качество видео: WEB-DLRip Перевод: Многоголосый профессиональный (TVShows) Язык озвучки: Русский Субтитры: Английские (forced, full, SDH) - отдельно Видео: XviD, 704x400, ~1641 Kbps Аудио: AC3, 6 ch, 384 Kbps - Русский
[+] MediaInfo:
General
Complete name                  : I.Am.Celine.Dion.2024.WEB-DLRip.AR-Team.avi
Format                         : AVI
Format/Info                    : Audio Video Interleave
Format settings                : BitmapInfoHeader / WaveFormatEx
File size                      : 1.46 GiB
Duration                       : 1 h 42 min
Overall bit rate               : 2 035 kb/s
Frame rate                     : 23.976 FPS
Writing application            : VirtualDubMod 1.5.10.3 | (build 2550/release)
Writing library                : VirtualDubMod build 2550/release

Video
ID                             : 0
Format                         : MPEG-4 Visual
Format profile                 : Advanced Simple@L5
Format settings                : BVOP1 / Custom Matrix
Format settings, BVOP          : 1
Format settings, QPel          : No
Format settings, GMC           : No warppoints
Format settings, Matrix        : Custom
Codec ID                       : XVID
Codec ID/Hint                  : XviD
Duration                       : 1 h 42 min
Bit rate                       : 1 641 kb/s
Width                          : 704 pixels
Height                         : 400 pixels
Display aspect ratio           : 16:9
Frame rate                     : 23.976 (24000/1001) FPS
Color space                    : YUV
Chroma subsampling             : 4:2:0
Bit depth                      : 8 bits
Scan type                      : Progressive
Compression mode               : Lossy
Bits/(Pixel*Frame)             : 0.243
Stream size                    : 1.18 GiB (81%)
Writing library                : XviD 73

Audio
ID                             : 1
Format                         : AC-3
Format/Info                    : Audio Coding 3
Commercial name                : Dolby Digital
Codec ID                       : 2000
Duration                       : 1 h 42 min
Bit rate mode                  : Constant
Bit rate                       : 384 kb/s
Channel(s)                     : 6 channels
Channel layout                 : L R C LFE Ls Rs
Sampling rate                  : 48.0 kHz
Frame rate                     : 31.250 FPS (1536 SPF)
Compression mode               : Lossy
Stream size                    : 283 MiB (19%)
Alignment                      : Split across interleaves
Interleave, duration           : 42  ms (1.00 video frame)
Interleave, preload duration   : 500  ms
Service kind                   : Complete Main
Dialog Normalization           : -31 dB
cmixlev                        : -3.0 dB
surmixlev                      : -3 dB
dialnorm_Average               : -31 dB
dialnorm_Minimum               : -31 dB
dialnorm_Maximum               : -31 dB
Скриншоты:

Всего файлов в раздаче: 4 
I.Am.Celine.Dion.2024.WEB-DLRip.AR-Team.avi1.46 GB
I.Am.Celine.Dion.2024.WEB-DLRip.AR-Team_[eng].srt100.56 kB
I.Am.Celine.Dion.2024.WEB-DLRip.AR-Team_track4_[eng].srt5.47 kB
I.Am.Celine.Dion.2024.WEB-DLRip.AR-Team_track6_[eng].srt121.36 kB

Похожие раздачи по запросу - Селин
2024-07-02 magnet Я Селин Дион / I Am: Celine Dion (2024) WEB-DL 1080p | P | TVShows 7.00 GB ↑ 8 ↓ 0

Комментарии


Зарегистрируйтесь чтобы добавить комментарий
Торрент клиент
byTorrent - программа для загрузки торрент-файлов.

Скачать byTorrent.exe (1,5 МБ)

Скачать byTorrent.zip (0,6 МБ)

Поддержи torrent.by
российских рублей
(300 российских рублей это 4$)

Обратная связь rss

End game ©