↑↓torrent.by
Поиск
Логин:  Регистрация
Пароль:

Сложный дом / Hard Home (2024) WEB-DLRip от New-Team | P2 | ViruseProject

download Скачать торрент-файл   magnet Магнитная ссылка Размер: 1.46 GB Раздают: 0 Качают: 1 Добавлен: il68k 2024-07-03 01:10
Пиры будут получены из сети DHT
Последний сидер был замечен 2024-07-12 16:13
Сложный дом / Hard Home Год выпуска: 2024 Выпущено: США / SP Media Group Жанр: триллер Режиссер: Джеймс Бэмфорд / James Bamford В ролях: Симона Кэссел, Эндрю Ховард, Рози Дэй, Джозеф Миллсон, Рэйчел Адедеджи, Дафна Чунг, Тереза Сендон-Гарсия О фильме: После трагического случая, который перевернул всю ее жизнь, мать превращает дом, истинное произведение высоких технологий, в коварную ловушку для чудовищного убийцы дочери. Начинается напряженная игра в кошки-мышки, где каждый ход, решение может стать роковым. Обе стороны погружаются в невероятно опасный психологический поединок, где страх, решимость и интеллект становятся ключевыми инструментами выживания. Продолжительность: 01:27:08 Перевод: Профессиональный (двухголосый, закадровый) | ViruseProject | 18+ Субтитры: нет. Раздача от: Формат: AVI Качество: WEB-DLRip Видео: 720x304 (2.35:1), 23.976 fps, XviD MPEG-4 ~ 2005 kbps avg, 0.382 bit/pixel, build 74 Аудио: 48 kHz, AC3 Dolby Digital, 3/2 (L, C, R, l, r) + LFE ch, ~ 192 kbps | RUS | Аудио: 48 kHz, AC3 Dolby Digital, 3/2 (L, C, R, l, r) + LFE ch, ~ 192 kbps | ENG |
[+] MediaInfoОбщее Полное имя: D:TorrentsHard.Home.2024.WEB-DLRip_от New-Team.avi Формат: AVI Формат/Информация: Audio Video Interleave Размер файла: 1, 46 Гбайт Продолжительность: 1 ч. 27 м. Общий поток: 2 403 Кбит/сек Программа кодирования: VirtualDubMod 1.5.10.2 (build 2540/release) Библиотека кодирования: VirtualDubMod build 2540/release Видео Идентификатор: 0 Формат: MPEG-4 Visual Профиль формата: Advanced Simple@L5 Настройки формата: BVOP1 / Custom Matrix Параметр BVOP формата: 1 Параметр QPel формата: Нет Параметр GMC формата: Без точки перехода Параметр матрицы формата: Выборочная Идентификатор кодека: XVID Идентификатор кодека/Подсказка: XviD Продолжительность: 1 ч. 27 м. Битрейт: 2 005 Кбит/сек Ширина: 720 пикселей Высота: 304 пикселя Соотношение сторон: 2, 35:1 Частота кадров: 23, 976 (24000/1001) кадра/сек Цветовое пространство: YUV Субдискретизация насыщенности: 4:2:0 Битовая глубина: 8 бит Тип развёртки: Прогрессивная Метод сжатия: С потерями Бит/(Пиксели*Кадры): 0.382 Размер потока: 1, 22 Гбайт (83%) Библиотека кодирования: XviD 74 Аудио #1 Идентификатор: 1 Формат: AC-3 Формат/Информация: Audio Coding 3 Коммерческое название: Dolby Digital Идентификатор кодека: 2000 Продолжительность: 1 ч. 27 м. Вид битрейта: Постоянный Битрейт: 192 Кбит/сек Каналы: 2 канала Channel layout: L R Частота: 48, 0 КГц Частота кадров: 31, 250 кадров/сек (1536 SPF) Метод сжатия: С потерями Размер потока: 120 Мбайт (8%) Выравнивание: Разделение по промежуткам Продолжительность промежутка: 42 мс. (1, 00 видеокадр) Время предзагрузки промежутка: 500 мс. Service kind: Complete Main Аудио #2 Идентификатор: 2 Формат: AC-3 Формат/Информация: Audio Coding 3 Коммерческое название: Dolby Digital Идентификатор кодека: 2000 Продолжительность: 1 ч. 27 м. Вид битрейта: Постоянный Битрейт: 192 Кбит/сек Каналы: 2 канала Channel layout: L R Частота: 48, 0 КГц Частота кадров: 31, 250 кадров/сек (1536 SPF) Метод сжатия: С потерями Размер потока: 120 Мбайт (8%) Выравнивание: Разделение по промежуткам Продолжительность промежутка: 42 мс. (1, 00 видеокадр) Время предзагрузки промежутка: 500 мс. Service kind: Complete Main

Всего файлов в раздаче: 1 
Hard.Home.2024.WEB-DLRip_от New-Team.avi1.46 GB

Похожие раздачи по запросу - Сложный дом
Сегодня magnet Дом Дракона / House of the Dragon [02x01-06 из 08] (2024) WEB-DL 1080p от Scarabey | P | LostFilm, HDRezka, Syncmer 29.23 GB ↑ 0 ↓ 67
Вчера magnet Дом Дракона / House of the Dragon [01-02x01-16 из 18] (2022-2024) WEB-DLRip | LostFilm 15.72 GB ↑ 0 ↓ 19
Вчера magnet Дом Дракона / House of the Dragon [01-02x01-15 из 18] (2022-2024) WEB-DLRip | Кравец-Рекордз 13.14 GB ↑ 0 ↓ 5
Вчера magnet Дом Дракона / House of the Dragon [02x01-05 из 08] (2024) UHD WEB-DL 2160p | 4K | Dolby Vision TV | D | Кравец-Рекордз 48.94 GB ↑ 0 ↓ 5
2024-07-23 magnet Дом дракона / House of the Dragon / Сезон: 2 / Серии: 1-6 из 8 [2024, фэнтези, боевик, драма, мелодрама, WEB-DL 720p] MVO 16.21 GB ↑ 0 ↓ 23
2024-07-23 magnet Дом Дракона / House of the Dragon [02x01-06 из 08] (2024) WEB-DL 1080p от Scarabey | P | LostFilm, HDRezka, Syncmer 28.86 GB ↑ 0 ↓ 19
2024-07-23 magnet Дом Дракона / House of the Dragon [02x01-05 из 08] (2024) WEB-DLRip-AVC от DoMiNo & селезень | D, P | Кравец-Рекордз, HDRezka, LostFilm 4.81 GB ↑ 0 ↓ 1

Комментарии


Зарегистрируйтесь чтобы добавить комментарий
Торрент клиент
byTorrent - программа для загрузки торрент-файлов.

Скачать byTorrent.exe (1,5 МБ)

Скачать byTorrent.zip (0,6 МБ)

Поддержи torrent.by
российских рублей
(300 российских рублей это 4$)

Обратная связь rss

End game ©