↑↓torrent.by
Поиск
Логин:  Регистрация
Пароль:

Сложный дом / Hard Home (2024) WEB-DLRip 720p | P2 | ViruseProject

download Скачать торрент-файл   magnet Магнитная ссылка Размер: 1.98 GB Добавлен: il68k 2024-07-03 01:15
Пиры будут получены из сети DHT
Последний сидер был замечен 2024-07-21 08:54
Информация о фильме Название: Сложный дом Оригинальное название: Hard Home Год выпуска: 2024 Жанр: Триллер Режиссер: Джеймс Бэмфорд / James Bamford В ролях: Симона Кэссел, Эндрю Ховард, Рози Дэй, Джозеф Миллсон, Рэйчел Адедеджи, Дафна Чунг, Тереза Сендон-Гарсия О фильме: После трагического случая, который перевернул всю ее жизнь, мать превращает дом, истинное произведение высоких технологий, в коварную ловушку для чудовищного убийцы дочери. Начинается напряженная игра в кошки-мышки, где каждый ход, решение может стать роковым. Обе стороны погружаются в невероятно опасный психологический поединок, где страх, решимость и интеллект становятся ключевыми инструментами выживания. Выпущено: США / SP Media Group Продолжительность: 01:27:08 Перевод: Профессиональный (двухголосый, закадровый) | ViruseProject | 18+ Субтитры: Английские (SDH) Файл Формат: Matroska Качество: WEB-DLRip 720p Видео: 1280x534 at 23.976 fps, x264@L4.1, ~2680 kbps Аудио 1: AC3, 2 ch, ~192 kbps - | Русский | Аудио 2: AC3, 6 ch, ~384 kbps - | Английский | Формат субтитров: softsub (SRT) ***Рип от: -=DoMiNo=-
[+] M/Ix264 : frame I:974 Avg QP:16.02 size: 68444 x264 : frame P:29213 Avg QP:17.02 size: 28407 x264 : frame B:95166 Avg QP:18.79 size: 8983 General Unique ID: 211593717193868403562260689837441689934 (0x9F2F77B48DDC2B8E8181A5F9A0AC294E) Complete name: T:Hard.Home.2024.WEB-DLRip.720p.x264.seleZen.mkv Format: Matroska Format version: Version 4 File size: 1.98 GiB Duration: 1 h 27 min Overall bit rate: 3 259 kb/s Frame rate: 23.976 FPS Movie name: Hard.Home.2024.WEB-DLRip.720p.x264.seleZen Encoded date: 2024-07-02 17:01:47 UTC Writing application: mkvmerge v85.0 ('Shame For You') 64-bit Writing library: libebml v1.4.5 + libmatroska v1.7.1 Cover: Yes Attachments: cover.jpg / small_cover.jpg Video ID: 1 Format: AVC Format/Info: Advanced Video Codec Format profile: High@L4.1 Format settings: CABAC / 5 Ref Frames Format settings, CABAC: Yes Format settings, Reference: 5 frames Codec ID: V_MPEG4/ISO/AVC Duration: 1 h 27 min Bit rate: 2 680 kb/s Width: 1 280 pixels Height: 534 pixels Display aspect ratio: 2.40:1 Frame rate mode: Constant Frame rate: 23.976 (24000/1001) FPS Color space: YUV Chroma subsampling: 4:2:0 Bit depth: 8 bits Scan type: Progressive Bits/(Pixel*Frame): 0.164 Stream size: 1.63 GiB (82%) Title: -=DoMiNo=- Writing library: x264 core 164 r3191 -DoMiNo Encoding settings: cabac=1 / ref=5 / deblock=1:-3:-2 / analyse=0x3:0x133 / me=umh / subme=10 / psy=1 / psy_rd=1.05:0.05 / mixed_ref=1 / me_range=32 / chroma_me=1 / trellis=2 / 8x8dct=1 / cqm=0 / deadzone=21, 11 / fast_pskip=0 / chroma_qp_offset=-3 / threads=17 / lookahead_threads=4 / sliced_threads=0 / nr=0 / decimate=1 / interlaced=0 / bluray_compat=0 / constrained_intra=0 / bframes=12 / b_pyramid=2 / b_adapt=2 / b_bias=0 / direct=3 / weightb=1 / open_gop=0 / weightp=2 / keyint=240 / keyint_min=23 / scenecut=40 / intra_refresh=0 / rc_lookahead=60 / rc=crf / mbtree=0 / crf=19.3 / qcomp=0.60 / qpmin=0 / qpmax=69 / qpstep=4 / vbv_maxrate=50000 / vbv_bufsize=62500 / crf_max=0.0 / nal_hrd=none / filler=0 / ip_ratio=1.32 / pb_ratio=1.30 / aq=3:0.90 Language: English Default: Yes Forced: No Color range: Limited Color primaries: BT.709 Transfer characteristics: BT.709 Matrix coefficients: BT.709 Audio #1 ID: 2 Format: AC-3 Format/Info: Audio Coding 3 Commercial name: Dolby Digital Codec ID: A_AC3 Duration: 1 h 27 min Bit rate mode: Constant Bit rate: 192 kb/s Channel(s): 2 channels Channel layout: L R Sampling rate: 48.0 kHz Frame rate: 31.250 FPS (1536 SPF) Compression mode: Lossy Stream size: 120 MiB (6%) Title: ViruseProject Language: Russian Service kind: Complete Main Default: Yes Forced: No Dialog Normalization: -31 dB dialnorm_Average: -31 dB dialnorm_Minimum: -31 dB dialnorm_Maximum: -31 dB Audio #2 ID: 3 Format: AC-3 Format/Info: Audio Coding 3 Commercial name: Dolby Digital Codec ID: A_AC3 Duration: 1 h 27 min Bit rate mode: Constant Bit rate: 384 kb/s Channel(s): 6 channels Channel layout: L R C LFE Ls Rs Sampling rate: 48.0 kHz Frame rate: 31.250 FPS (1536 SPF) Compression mode: Lossy Stream size: 239 MiB (12%) Language: English Service kind: Complete Main Default: No Forced: No Dialog Normalization: -31 dB cmixlev: -4.5 dB surmixlev: -6 dB dialnorm_Average: -31 dB dialnorm_Minimum: -31 dB dialnorm_Maximum: -31 dB Text ID: 4 Format: UTF-8 Codec ID: S_TEXT/UTF8 Codec ID/Info: UTF-8 Plain Text Duration: 1 h 26 min Bit rate: 41 b/s Frame rate: 0.199 FPS Count of elements: 1031 Stream size: 26.3 KiB (0%) Title: SDH Language: English Default: No Forced: No

Всего файлов в раздаче: 1 
Hard.Home.2024.WEB-DLRip.720p.x264.seleZen.mkv1.98 GB

Похожие раздачи по запросу - Сложный дом
Сегодня magnet Дом Дракона / House of the Dragon [01-02x01-16 из 18] (2022-2024) WEB-DLRip | LostFilm 15.72 GB ↑ 0 ↓ 3
Сегодня magnet Дом Дракона / House of the Dragon [01-02x01-15 из 18] (2022-2024) WEB-DLRip | Кравец-Рекордз 13.14 GB ↑ 0 ↓ 0
Сегодня magnet Дом Дракона / House of the Dragon [02x01-05 из 08] (2024) UHD WEB-DL 2160p | 4K | Dolby Vision TV | D | Кравец-Рекордз 48.94 GB ↑ 0 ↓ 2
Вчера magnet Дом дракона / House of the Dragon / Сезон: 2 / Серии: 1-6 из 8 [2024, фэнтези, боевик, драма, мелодрама, WEB-DL 720p] MVO 16.21 GB ↑ 0 ↓ 34
Вчера magnet Дом Дракона / House of the Dragon [02x01-06 из 08] (2024) WEB-DL 1080p от Scarabey | P | LostFilm, HDRezka, Syncmer 28.86 GB ↑ 0 ↓ 68
Вчера magnet Дом Дракона / House of the Dragon [02x01-05 из 08] (2024) WEB-DLRip-AVC от DoMiNo & селезень | D, P | Кравец-Рекордз, HDRezka, LostFilm 4.81 GB ↑ 0 ↓ 2
Вчера magnet Дом Дракона / House of the Dragon [02x01-06 из 08] (2024) UHD WEB-DL 2160p | 4K | HDR | Dolby Vision Profile 8 | D, P 63.49 GB ↑ 0 ↓ 19

Комментарии


Зарегистрируйтесь чтобы добавить комментарий
Торрент клиент
byTorrent - программа для загрузки торрент-файлов.

Скачать byTorrent.exe (1,5 МБ)

Скачать byTorrent.zip (0,6 МБ)

Поддержи torrent.by
российских рублей
(300 российских рублей это 4$)

Обратная связь rss

End game ©