↑↓torrent.by
Поиск
Логин:  Регистрация
Пароль:

Фуриоса: Хроники Безумного Макса / Furiosa: A Mad Max Saga [2024, фантастика, боевик, WEB-DLRip-AVC] Dub

download Скачать торрент-файл   magnet Магнитная ссылка Размер: 2.18 GB Раздают: 0 Качают: 2 Добавлен: il68k 2024-07-03 01:37
Пиры будут получены из сети DHT
Последний сидер был замечен вчера в 22:57
Фуриоса: Хроники Безумного Макса / Furiosa: A Mad Max Saga

Страна: Австралия, США Жанр: фантастика, боевик Год выпуска: 2024 Продолжительность: 02:28:11
Перевод: Профессиональный (дублированный) | Movie Dubbing Субтитры: русские (forced) Оригинальная аудиодорожка: нет
Режиссер: Джордж Миллер / George Miller
В ролях: Аня Тейлор-Джой, Крис Хемсворт, Том Бёрк, Алила Браун, Джордж Шевцов, Лейчи Халм, Джон Ховард, Энгус Сэмпсон, Чарли Фрейзер, Эльза Патаки
Описание: История похищения юной воительницы Фуриосы из Зелёных Земель, в результате которого девушка попадает в руки орды байкеров под предводительством Военачальника Дементуса. Пробираясь через Пустошь, они натыкаются на Цитадель, которой управляет Бессмертный Джо, и пока два тирана борются за господство, Фуриосе предстоит пережить множество испытаний, пытаясь найти путь домой.

Качество видео: WEB-DLRip-AVC Формат видео: MKV Видео: 1152x480 (2.40:1), 23.976 fps, AVC, ~1653 Kbps, 0.125 bits/pixel Аудио: Russian, 48.0 KHz, AC3, 6 ch, 448 Kbps Сэмпл
[+] MediaInfo
Формат                                   : Matroska
Версия формата                           : Version 4
Размер файла                             : 2,18 Гбайт
Продолжительность                        : 2 ч. 28 мин.
Режим общего битрейта                    : Переменный
Общий битрейт                            : 2 103 Кбит/сек
Частота кадров                           : 23,976 кадра/сек
Название фильма                          : Furiosa | Rip ny порошков
Дата кодирования                         : 2024-06-30 16:07:07 UTC
Программа кодирования                    : mkvmerge v84.0 ('Sleeper') 64-bit
Библиотека кодирования                   : libebml v1.4.5 + libmatroska v1.7.1

Видео
Идентификатор                            : 1
Формат                                   : AVC
Формат/Информация                        : Advanced Video Codec
Профиль формата                          : High@L4.1
Настройки формата                        : CABAC / 15 Ref Frames
Параметр CABAC формата                   : Да
Параметр RefFrames формата               : 15 кадров
Идентификатор кодека                     : V_MPEG4/ISO/AVC
Продолжительность                        : 2 ч. 28 мин.
Вид битрейта                             : Переменный
Битрейт                                  : 1 653 Кбит/сек
Максимальный битрейт                     : 62,5 Мбит/сек
Ширина                                   : 1 152 пикселя
Высота                                   : 480 пикселей
Соотношение сторон дисплея               : 2,40:1
Режим частоты кадров                     : Постоянный
Частота кадров                           : 23,976 (24000/1001) кадра/сек
Цветовое пространство                    : YUV
Цветовая субдискретизация                : 4:2:0
Битовая глубина                          : 8 бит
Тип развёртки                            : Прогрессивная
Бит/(Пиксели*Кадры)                      : 0.125
Размер потока                            : 1,71 Гбайт (79%)
Библиотека кодирования                   : x264 core 164 r3164 c196240
Параметры библиотеки кодирования         : cabac=1 / ref=15 / deblock=1:-1:-1 / analyse=0x3:0x133 / me=umh / subme=10 / psy=1 / psy_rd=1.00:0.15 / mixed_ref=1 / me_range=24 / chroma_me=1 / trellis=2 / 8x8dct=1 / cqm=0 / deadzone=21,11 / fast_pskip=1 / chroma_qp_offset=-3 / threads=16 / lookahead_threads=3 / sliced_threads=0 / nr=0 / decimate=1 / interlaced=0 / bluray_compat=0 / constrained_intra=0 / bframes=15 / b_pyramid=2 / b_adapt=2 / b_bias=0 / direct=3 / weightb=1 / open_gop=0 / weightp=2 / keyint=240 / keyint_min=23 / scenecut=40 / intra_refresh=0 / rc_lookahead=60 / rc=2pass / mbtree=1 / bitrate=1653 / ratetol=1.0 / qcomp=0.60 / qpmin=0 / qpmax=69 / qpstep=4 / cplxblur=20.0 / qblur=0.5 / vbv_maxrate=62500 / vbv_bufsize=50000 / nal_hrd=vbr / filler=0 / ip_ratio=1.40 / aq=1:1.00
По умолчанию                             : Да
Принудительно                            : Нет

Аудио
Идентификатор                            : 2
Формат                                   : AC-3
Формат/Информация                        : Audio Coding 3
Коммерческое название                    : Dolby Digital
Идентификатор кодека                     : A_AC3
Продолжительность                        : 2 ч. 28 мин.
Вид битрейта                             : Постоянный
Битрейт                                  : 448 Кбит/сек
Канал(-ы)                                : 6 каналов
Расположение каналов                     : L R C LFE Ls Rs
Частота дискретизации                    : 48,0 КГц
Частота кадров                           : 31,250 кадров/сек (1536 SPF)
Метод сжатия                             : С потерями
Размер потока                            : 475 Мбайт (21%)
Язык                                     : Русский
Вид сервиса                              : Complete Main
По умолчанию                             : Да
Принудительно                            : Нет
Нормализация звука речи                  : -31 dB
cmixlev                                  : -3.0 dB
surmixlev                                : -3 dB
dialnorm_Average                         : -31 dB
dialnorm_Minimum                         : -31 dB
dialnorm_Maximum                         : -31 dB

Текст
Идентификатор                            : 3
Формат                                   : UTF-8
Идентификатор кодека                     : S_TEXT/UTF8
Идентификатор кодека/Информация          : UTF-8 Plain Text
Продолжительность                        : 2 ч. 27 мин.
Битрейт                                  : 0 бит/сек
Частота кадров                           : 0,001 кадр/сек
Число элементов                          : 12
Размер потока                            : 516 байт (0%)
Заголовок                                : forced
Язык                                     : Русский
По умолчанию                             : Да
Принудительно                            : Нет
[+] Скриншоты

Всего файлов в раздаче: 1 
Фуриоса Хроники Безумного Макса_2024_WEB-DLRip-AVC.mkv2.18 GB

Похожие раздачи по запросу - Фуриоса
2024-07-15 magnet Фуриоса: Хроники Безумного Макса / Фуріоза: Шалений Макс. Сага / Furiosa: A Mad Max Saga (2024) WEB-DL-HEVC 2160p | 4K | SDR | D | UKR 26.45 GB ↑ 0 ↓ 0
2024-07-06 magnet Фуриоса: Хроники Безумного Макса / Furiosa: A Mad Max Saga (2024) UHD WEB-DL 2160p | 4K | HDR | Dolby Vision Profile 8 | D, P, A 31.04 GB ↑ 2 ↓ 5
2024-07-03 magnet Фуриоса: Хроники Безумного Макса / Furiosa: A Mad Max Saga (2024) WEB-DLRip-AVC | КПК | D, P | Red Head Sound, HDrezka Studio 805.80 MB ↑ 0 ↓ 1
2024-07-01 magnet Фуриоса: Хроники Безумного Макса / Furiosa: A Mad Max Saga (2024) WEB-DLRip 1080p | D, P, A | Movie Dubbing, RHS, LostFilm, HDrezka, Jaskier, TVShows, Яроцкий 22.53 GB ↑ 1 ↓ 1
2024-06-30 magnet Фуриоса: Хроники Безумного Макса / Furiosa: A Mad Max Saga (2024) WEB-DLRip от DoMiNo & селезень | D | Red Head Sound 1.47 GB ↑ 0 ↓ 3
2024-06-30 magnet Фуриоса: Хроники Безумного Макса / Furiosa: A Mad Max Saga (2024) UHD WEB-DL HEVC 2160p | 4K | Dolby Vision TV | D | Movie Dubbing, Red Head Sound 27.00 GB ↑ 0 ↓ 1
2024-06-30 magnet Фуриоса: Хроники Безумного Макса / Furiosa: A Mad Max Saga (2024) WEB-DL 1080p | D, P | Red Head Sound, Movie Dubbing, HDrezka Studio, Jaskier 11.97 GB ↑ 0 ↓ 0

Комментарии


Зарегистрируйтесь чтобы добавить комментарий
Торрент клиент
byTorrent - программа для загрузки торрент-файлов.

Скачать byTorrent.exe (1,5 МБ)

Скачать byTorrent.zip (0,6 МБ)

Поддержи torrent.by
российских рублей
(300 российских рублей это 4$)

Обратная связь rss

End game ©