↑↓torrent.by
Поиск
Логин:  Регистрация
Пароль:

Объясняя необъяснимое / Files of the Unexplained [S01] (2024) WEB-DL 1080p | Red Head Sound

download Скачать торрент-файл   magnet Магнитная ссылка Размер: 16.57 GB Добавлен: 2024-07-03 05:00
Пиры будут получены из сети DHT
Последний сидер был замечен 2024-07-03 05:00
Название: Объясняя необъяснимое Оригинальное название: Files of the Unexplained Год выхода: 2024 Жанр: Документальный, криминал, детектив В ролях: Тихуана Рикс, Майкл Слэйд, Паркер Маккриди, Шарлотта Стефенс, Марк Стефенс, Сильви Борежар, Джон Кирк, Гэйл Андерсон, Брэд Уолватн, Деррел В. Симс и др. Описание сериала: Документальный сериал из восьми эпизодов исследует загадочные происшествия, с которыми сталкивались обычные люди. Среди них — встречи с пришельцами, появление призраков и таинственные исчезновения. Один из эпизодов посвящён случаю обнаружения отрубленных ступней на берегу моря Салиш. Страна: США Студия: Netflix Продолжительность: ~0:35:00 Перевод: Профессиональный (многоголосый, закадровый) Red Head Sound Субтитры: Русские, английские Файл Формат: MKV Качество: WEB-DL (1080p) Видео: 1920x1080 (16:9), 23,976 fps, AVC (х264), High@L4, ~7255 Kbps avg, 0.146 bit/pixel Аудио RUS: 48 kHz, AC3, 2/0 (L,R) ch, ~192 kbps avg Аудио ENG: 48 kHz, E-AC3, 3/2 (L,C,R,l,r) + LFE ch, ~640 kbps avg
[+] Содержание01. Похищение пришельцами в Паскагуле / File: Pascagoula Alien Abduction 02. Привидения плантации Миртлс / File: Ghosts of Myrtles Plantation 03. Исчезновение пятерки из округа Юба / File: Missing Yuba County Five 04. Государственный заговор об НЛО / File: Government's UFO Conspiracy 05. Призраки озера Ланье / File: Haunting of Lake Lanier 06. Загадки горы Шаста / File: Mysteries of Mt. Shasta 07. Странные капли в штате Вашингтон / File: Bizarre Blobs of Washington 08. Обрубленные ступни в море Селиш / File: Floating Feet of Salish Sea
[+] MediaInfoОбщее Уникальный идентификатор : 138394494884419014202791607956156023028 (0x681DCF6831AC933D44C5371D58B580F4) Полное имя : Files.of.the.Unexplained.2024.S01E01.WEB-DL.1080p.NF.RHS.mkv Формат : Matroska Версия формата : Version 4 Размер файла : 2,02 Гбайт Продолжительность : 35 мин. 47 с. Режим общего битрейта : Переменный Общий битрейт : 8 089 Кбит/сек Частота кадров : 23,976 кадра/сек Дата кодирования : 2024-07-02 04:51:10 UTC Программа кодирования : mkvmerge v68.0.0 ('The Curtain') 64-bit Библиотека кодирования : libebml v1.4.2 + libmatroska v1.6.4 Видео Идентификатор : 1 Формат : AVC Формат/Информация : Advanced Video Codec Профиль формата : High@L4 Настройки формата : CABAC / 4 Ref Frames Параметр CABAC формата : Да Параметр RefFrames формата : 4 кадра Идентификатор кодека : V_MPEG4/ISO/AVC Продолжительность : 35 мин. 47 с. Вид битрейта : Переменный Битрейт : 7 255 Кбит/сек Максимальный битрейт : 20,0 Мбит/сек Ширина : 1 920 пикселей Высота : 1 080 пикселей Соотношение сторон дисплея : 16:9 Режим частоты кадров : Постоянный Частота кадров : 23,976 (24000/1001) кадра/сек Цветовое пространство : YUV Цветовая субдискретизация : 4:2:0 Битовая глубина : 8 бит Тип развёртки : Прогрессивная Бит/(Пиксели*Кадры) : 0.146 Размер потока : 1,81 Гбайт (90%) Библиотека кодирования : x264 core 148 r2727 7d026e8 Параметры библиотеки кодирования : cabac=1 / ref=4 / deblock=1:0:0 / analyse=0x3:0x111 / me=umh / subme=10 / psy=1 / psy_rd=1.00:0.00 / mixed_ref=1 / me_range=120 / chroma_me=1 / trellis=2 / 8x8dct=1 / cqm=0 / deadzone=21,11 / fast_pskip=1 / chroma_qp_offset=-2 / threads=6 / lookahead_threads=1 / sliced_threads=0 / nr=0 / decimate=1 / interlaced=0 / bluray_compat=0 / stitchable=1 / constrained_intra=0 / bframes=16 / b_pyramid=2 / b_adapt=2 / b_bias=0 / direct=3 / weightb=1 / open_gop=0 / weightp=2 / keyint=240 / keyint_min=121 / scenecut=0 / intra_refresh=0 / rc_lookahead=240 / rc=crf / mbtree=1 / crf=16.0 / qcomp=0.50 / qpmin=6 / qpmax=51 / qpstep=4 / vbv_maxrate=20000 / vbv_bufsize=25000 / crf_max=0.0 / nal_hrd=vbr / filler=0 / ip_ratio=1.40 / aq=1:0.80 По умолчанию : Да Принудительно : Нет Аудио #1 Идентификатор : 2 Формат : AC-3 Формат/Информация : Audio Coding 3 Коммерческое название : Dolby Digital Идентификатор кодека : A_AC3 Продолжительность : 35 мин. 47 с. Вид битрейта : Постоянный Битрейт : 192 Кбит/сек Канал(-ы) : 2 канала Расположение каналов : L R Частота дискретизации : 48,0 КГц Частота кадров : 31,250 кадров/сек (1536 SPF) Метод сжатия : С потерями Размер потока : 49,2 Мбайт (2%) Язык : Русский По умолчанию : Да Принудительно : Нет Нормализация звука речи : -31 dB dialnorm_Average : -31 dB dialnorm_Minimum : -31 dB dialnorm_Maximum : -31 dB Аудио #2 Идентификатор : 3 Формат : E-AC-3 Формат/Информация : Enhanced AC-3 Коммерческое название : Dolby Digital Plus Идентификатор кодека : A_EAC3 Продолжительность : 35 мин. 47 с. Вид битрейта : Постоянный Битрейт : 640 Кбит/сек Канал(-ы) : 6 каналов Расположение каналов : L R C LFE Ls Rs Частота дискретизации : 48,0 КГц Частота кадров : 31,250 кадров/сек (1536 SPF) Метод сжатия : С потерями Размер потока : 164 Мбайт (8%) Язык : Английский По умолчанию : Да Принудительно : Нет Нормализация звука речи : -28 dB compr : -0.28 dB dialnorm_Average : -28 dB dialnorm_Minimum : -28 dB dialnorm_Maximum : -28 dB Текст #1 Идентификатор : 4 Формат : UTF-8 Идентификатор кодека : S_TEXT/UTF8 Идентификатор кодека/Информация : UTF-8 Plain Text Продолжительность : 34 мин. 4 с. Битрейт : 142 бит/сек Частота кадров : 0,259 кадр/сек Число элементов : 530 Размер потока : 35,6 КиБ (0%) Заголовок : Russian Язык : Русский По умолчанию : Нет Принудительно : Нет Текст #2 Идентификатор : 5 Формат : UTF-8 Идентификатор кодека : S_TEXT/UTF8 Идентификатор кодека/Информация : UTF-8 Plain Text Продолжительность : 33 мин. 39 с. Битрейт : 103 бит/сек Частота кадров : 0,287 кадр/сек Число элементов : 579 Размер потока : 25,6 КиБ (0%) Заголовок : English (SDH) Язык : Английский По умолчанию : Нет Принудительно : Нет
[+] Скриншоты

Всего файлов в раздаче: 8 
Files.of.the.Unexplained.2024.S01E01.WEB-DL.1080p.NF.RHS.mkv2.02 GB
Files.of.the.Unexplained.2024.S01E02.WEB-DL.1080p.NF.RHS.mkv1.95 GB
Files.of.the.Unexplained.2024.S01E03.WEB-DL.1080p.NF.RHS.mkv2.73 GB
Files.of.the.Unexplained.2024.S01E04.WEB-DL.1080p.NF.RHS.mkv2.24 GB
Files.of.the.Unexplained.2024.S01E05.WEB-DL.1080p.NF.RHS.mkv1.84 GB
Files.of.the.Unexplained.2024.S01E06.WEB-DL.1080p.NF.RHS.mkv1.74 GB
Files.of.the.Unexplained.2024.S01E07.WEB-DL.1080p.NF.RHS.mkv1.88 GB
Files.of.the.Unexplained.2024.S01E08.WEB-DL.1080p.NF.RHS.mkv2.17 GB

Комментарии


Зарегистрируйтесь чтобы добавить комментарий
Торрент клиент
byTorrent - программа для загрузки торрент-файлов.

Скачать byTorrent.exe (1,5 МБ)

Скачать byTorrent.zip (0,6 МБ)

Поддержи torrent.by
российских рублей
(300 российских рублей это 4$)

Обратная связь rss

End game ©